<?xml version="1.0" standalone="no"?>
<!DOCTYPE svg PUBLIC "-//W3C//DTD SVG 1.1//EN" "http://www.w3.org/Graphics/SVG/1.1/DTD/svg11.dtd" >
<svg>
<metadata>
Created by FontForge 20090622 at Fri Mar 15 10:02:26 2019
 By deploy user
Copyright (c) Mark Simonson, 2005. All rights reserved.
</metadata>
<defs>
<font id="ProximaNova-Regular" horiz-adv-x="572" >
  <font-face 
    font-family="ProximaNova-Regular"
    font-weight="400"
    font-stretch="normal"
    units-per-em="1000"
    panose-1="2 0 5 6 3 0 0 2 0 4"
    ascent="775"
    descent="-225"
    x-height="483"
    cap-height="667"
    bbox="-172 -311 1082 907"
    underline-thickness="20"
    underline-position="-133"
    unicode-range="U+000D-U+FB04"
  />
<missing-glyph horiz-adv-x="507" 
d="M78 752h351v-842h-351v842zM109 722v-782h288v782h-288z" />
    <glyph glyph-name=".notdef" horiz-adv-x="507" 
d="M78 752h351v-842h-351v842zM109 722v-782h288v782h-288z" />
    <glyph glyph-name=".null" horiz-adv-x="0" 
 />
    <glyph glyph-name="nonmarkingreturn" unicode="&#xd;" horiz-adv-x="0" 
 />
    <glyph glyph-name="NULL" horiz-adv-x="0" 
 />
    <glyph glyph-name="NULL" horiz-adv-x="0" 
 />
    <glyph glyph-name="space" unicode=" " horiz-adv-x="258" 
 />
    <glyph glyph-name="exclam" unicode="!" horiz-adv-x="230" 
d="M68 667h94l-16 -480h-62zM76.5 84q16.5 16 38.5 16q23 0 39 -16t16 -39q0 -22 -16.5 -38.5t-38.5 -16.5t-38.5 16.5t-16.5 38.5q0 23 16.5 39z" />
    <glyph glyph-name="quotedbl" unicode="&#x22;" horiz-adv-x="343" 
d="M65.5 533q-11.5 89 -11.5 98q0 19 13 32.5t32 13.5t32.5 -13.5t13.5 -32.5q0 -9 -11.5 -98l-15.5 -121h-37zM210.5 533q-11.5 89 -11.5 98q0 19 13.5 32.5t32.5 13.5t32 -13.5t13 -32.5q0 -9 -11.5 -98l-15.5 -121h-37z" />
    <glyph glyph-name="numbersign" unicode="#" horiz-adv-x="590" 
d="M300 181h-111l-60 -181h-62l61 181h-106l17 53h107l66 199h-108l16 52h110l60 182h62l-60 -182h110l60 182h61l-61 -182h107l-15 -52h-109l-67 -199h111l-16 -53h-113l-60 -181h-61zM273 433l-66 -199h110l66 199h-110z" />
    <glyph glyph-name="dollar" unicode="$" horiz-adv-x="593" 
d="M492 53q-52 -55 -160 -63v-90h-61v89q-74 4 -132 32t-97 73l50 63q32 -36 78 -61.5t101 -31.5v243q-64 17 -107 36t-72 55.5t-29 93.5q0 51 27 91.5t74 65t107 28.5v91h61v-93q121 -10 197 -91l-50 -61q-56 63 -147 76v-217q65 -18 109 -39t73.5 -59.5t29.5 -99.5
q0 -76 -52 -131zM180.5 436.5q31.5 -21.5 90.5 -38.5v204q-54 -3 -88 -32t-34 -73q0 -39 31.5 -60.5zM428.5 103q30.5 33 30.5 74q0 46 -32.5 70.5t-94.5 43.5v-226q66 5 96.5 38z" />
    <glyph glyph-name="percent" unicode="%" horiz-adv-x="731" 
d="M51.5 595.5q20.5 37.5 56.5 59.5t83 22t84 -22t57.5 -59.5t20.5 -84.5q0 -46 -20.5 -83.5t-57.5 -58.5t-84 -21t-83.5 21t-56.5 58.5t-20 83.5q0 47 20.5 84.5zM554 667h55l-427 -667h-54zM264.5 593.5q-28.5 32.5 -73.5 32.5q-44 0 -72 -32.5t-28 -82.5q0 -48 28 -80.5
t72 -32.5t73 32.5t29 80.5q0 50 -28.5 82.5zM399.5 235.5q20.5 37.5 56.5 59.5t83 22t83.5 -22t57 -59.5t20.5 -84.5q0 -46 -20.5 -83.5t-57 -58.5t-83.5 -21t-83.5 21t-56.5 58.5t-20 83.5q0 47 20.5 84.5zM612.5 233.5q-28.5 32.5 -73.5 32.5t-73 -32.5t-28 -82.5
q0 -48 28.5 -80.5t72.5 -32.5t73 32.5t29 80.5q0 50 -28.5 82.5z" />
    <glyph glyph-name="ampersand" unicode="&#x26;" horiz-adv-x="641" 
d="M613 0h-104q-30 27 -73 70q-84 -82 -192 -82q-91 0 -149.5 48.5t-58.5 137.5q0 71 39 116t109 83q-52 86 -52 149q0 44 22.5 79.5t61 55.5t84.5 20q67 0 109 -34.5t42 -96.5q0 -47 -23 -80.5t-56 -55.5t-90 -52q23 -32 76 -95q20 -22 29 -33l51 -56q25 38 43 78.5
t28 73.5l65 -28q-44 -106 -91 -172q47 -48 130 -126zM250 406q66 33 99 62.5t33 74.5q0 36 -22 55.5t-57 19.5q-39 0 -66 -27.5t-27 -69.5q0 -45 40 -115zM391 116q-66 69 -92 101q-55 66 -83 106q-47 -29 -73 -62.5t-26 -81.5q0 -60 39.5 -94.5t94.5 -34.5q74 0 140 66z
" />
    <glyph glyph-name="quotesingle" unicode="'" horiz-adv-x="199" 
d="M65.5 533q-11.5 89 -11.5 98q0 19 13 32.5t32 13.5t32.5 -13.5t13.5 -32.5q0 -9 -11.5 -98l-15.5 -121h-37z" />
    <glyph glyph-name="parenleft" unicode="(" horiz-adv-x="248" 
d="M80.5 8.5q-36.5 114.5 -36.5 234.5t36.5 234.5t104.5 207.5l45 -34q-53 -105 -78.5 -197.5t-25.5 -210.5q0 -117 25.5 -210.5t78.5 -196.5l-45 -35q-68 93 -104.5 207.5z" />
    <glyph glyph-name="parenright" unicode=")" horiz-adv-x="248" 
d="M96 454q-26 93 -79 197l45 34q68 -93 105 -207.5t37 -234.5q0 -121 -37 -235.5t-105 -206.5l-45 35q53 103 79 196.5t26 210.5q0 118 -26 211z" />
    <glyph glyph-name="asterisk" unicode="*" horiz-adv-x="340" 
d="M152 504l-96 -63l-22 40l102 52l-102 52l22 39l96 -62l-5 115h46l-6 -115l96 62l23 -39l-102 -52l102 -52l-23 -40l-96 63l6 -115h-46z" />
    <glyph glyph-name="plus" unicode="+" horiz-adv-x="499" 
d="M278 98h-57v213h-192v52h192v207h57v-207h192v-52h-192v-213z" />
    <glyph glyph-name="comma" unicode="," horiz-adv-x="230" 
d="M57 -96q25 16 43.5 42.5t21.5 50.5q-4 -2 -14 -2q-21 0 -34.5 14.5t-13.5 36.5t15.5 38t37.5 16q26 0 44.5 -20.5t18.5 -55.5q0 -44 -23 -84.5t-59 -66.5z" />
    <glyph glyph-name="hyphen" unicode="-" horiz-adv-x="300" 
d="M30 275h240v-66h-240v66z" />
    <glyph glyph-name="period" unicode="." horiz-adv-x="230" 
d="M76.5 84q16.5 16 38.5 16q23 0 39 -16t16 -39q0 -22 -16 -38.5t-39 -16.5q-22 0 -38.5 16.5t-16.5 38.5q0 23 16.5 39z" />
    <glyph glyph-name="slash" unicode="/" horiz-adv-x="296" 
d="M237 687h59l-237 -707h-59z" />
    <glyph glyph-name="zero" unicode="0" horiz-adv-x="612" 
d="M78 498.5q27 78.5 84 128.5t144 50q86 0 143.5 -50t84.5 -128.5t27 -165.5t-27 -165.5t-84.5 -129t-143.5 -50.5t-143.5 50.5t-84.5 129t-27 165.5t27 165.5zM435 524.5q-41 78.5 -129 78.5t-129 -78.5t-41 -191.5q0 -114 41 -192.5t129 -78.5t129 78.5t41 192.5
q0 113 -41 191.5z" />
    <glyph glyph-name="one" unicode="1" horiz-adv-x="339" 
d="M178 557l-107 -113l-50 51l167 172h73v-667h-83v557z" />
    <glyph glyph-name="two" unicode="2" horiz-adv-x="588" 
d="M54 66q138 109 213.5 175.5t116 125.5t40.5 114q0 60 -41 91t-98 31q-58 0 -104.5 -22.5t-76.5 -61.5l-51 53q38 50 99.5 77.5t132.5 27.5q58 0 109 -22t83 -66.5t32 -107.5q0 -65 -40 -129.5t-108 -128.5t-176 -149h327v-74h-458v66z" />
    <glyph glyph-name="three" unicode="3" horiz-adv-x="557" 
d="M78 150q30 -40 79 -64t107 -24q73 0 114.5 33.5t41.5 91.5q0 60 -44.5 89t-121.5 29q-59 0 -69 -1v76q11 -1 69 -1q68 0 111.5 27.5t43.5 82.5q0 53 -42.5 83.5t-106.5 30.5q-53 0 -95.5 -20t-80.5 -61l-46 52q39 47 97 75t131 28q99 0 162.5 -47.5t63.5 -130.5
q0 -66 -44 -105.5t-100 -49.5q34 -3 69.5 -22.5t60 -55.5t24.5 -86q0 -56 -28.5 -99.5t-82 -68t-125.5 -24.5q-80 0 -142 31t-95 79z" />
    <glyph glyph-name="four" unicode="4" horiz-adv-x="558" 
d="M349 169h-317v69l286 429h114v-425h94v-73h-94v-169h-83v169zM115 242h234v348z" />
    <glyph glyph-name="five" unicode="5" horiz-adv-x="590" 
d="M117 150q69 -88 184 -88q68 0 111 41t43 102q0 65 -42.5 104.5t-110.5 39.5q-90 0 -154 -63l-61 21v360h408v-74h-325v-232q26 26 67 43t89 17q57 0 105.5 -25t77.5 -73.5t29 -114.5t-31 -116t-85 -77t-121 -27q-81 0 -138.5 27.5t-96.5 79.5z" />
    <glyph glyph-name="six" unicode="6" horiz-adv-x="591" 
d="M80.5 504.5q29.5 78.5 90.5 125.5t151 47q115 0 185 -80l-42 -62q-28 33 -61 50.5t-82 17.5q-62 0 -104 -37t-63 -96.5t-21 -128.5q0 -17 1 -26q25 40 77.5 72t111.5 32q61 0 110.5 -24t78.5 -72t29 -117q0 -59 -28.5 -108.5t-81.5 -79.5t-124 -30q-131 0 -194 97.5
t-63 246.5q0 94 29.5 172.5zM415 310q-43 37 -111 37q-49 0 -94 -27.5t-73 -72.5q7 -74 48 -129.5t120 -55.5q49 0 83.5 21t52 53.5t17.5 66.5q0 70 -43 107z" />
    <glyph glyph-name="seven" unicode="7" horiz-adv-x="515" 
d="M390 593h-359v74h455v-57l-273 -610h-92z" />
    <glyph glyph-name="eight" unicode="8" horiz-adv-x="581" 
d="M97.5 278q45.5 46 113.5 66q-64 18 -106 58.5t-42 101.5q0 57 32.5 96t85 58t110.5 19t110.5 -19t85.5 -58t33 -96q0 -61 -42 -101.5t-107 -58.5q68 -20 113.5 -66t45.5 -109q0 -55 -32 -96t-86.5 -63t-120.5 -22q-67 0 -121.5 22t-86 63t-31.5 96q0 63 45.5 109z
M394.5 573q-41.5 30 -103.5 30q-63 0 -104 -30t-41 -80q0 -53 47 -79.5t98 -35.5q51 9 98 35.5t47 79.5q0 50 -41.5 80zM418 246q-28 28 -64 43t-63 18q-27 -3 -63.5 -18t-64.5 -43t-28 -68q0 -52 45.5 -84t110.5 -32q64 0 109.5 32t45.5 84q0 40 -28 68z" />
    <glyph glyph-name="nine" unicode="9" horiz-adv-x="591" 
d="M126 131q28 -33 61.5 -50.5t81.5 -17.5q64 0 106.5 37.5t62 97t19.5 126.5q0 18 -1 27q-25 -40 -77 -72t-111 -32q-61 0 -111 24t-79 72t-29 117q0 58 28.5 108t81.5 80t123 30q132 0 195 -97.5t63 -247.5q0 -94 -29.5 -172t-90.5 -125t-151 -47q-115 0 -185 80zM406 548
q-41 56 -120 56q-48 0 -83 -21.5t-52.5 -54t-17.5 -65.5q0 -70 43 -107t111 -37q49 0 94.5 27t71.5 72q-6 74 -47 130z" />
    <glyph glyph-name="colon" unicode=":" horiz-adv-x="230" 
d="M76.5 474q16.5 16 38.5 16q23 0 39 -16t16 -39q0 -22 -16 -38.5t-39 -16.5q-22 0 -38.5 16.5t-16.5 38.5q0 23 16.5 39zM76.5 84q16.5 16 38.5 16q23 0 39 -16t16 -39q0 -22 -16 -38.5t-39 -16.5q-22 0 -38.5 16.5t-16.5 38.5q0 23 16.5 39z" />
    <glyph glyph-name="semicolon" unicode=";" horiz-adv-x="230" 
d="M76.5 396.5q-16.5 16.5 -16.5 38.5q0 23 16.5 39t38.5 16q23 0 39 -16t16 -39q0 -22 -16.5 -38.5t-38.5 -16.5t-38.5 16.5zM57 -96q25 16 43.5 42.5t21.5 50.5q-4 -2 -14 -2q-21 0 -34.5 14.5t-13.5 36.5t15.5 38t37.5 16q26 0 44.5 -20.5t18.5 -55.5q0 -44 -23 -84.5
t-59 -66.5z" />
    <glyph glyph-name="less" unicode="&#x3c;" horiz-adv-x="499" 
d="M29 361l441 219v-63l-377 -183l377 -182v-62l-441 218v53z" />
    <glyph glyph-name="equal" unicode="=" horiz-adv-x="499" 
d="M29 457h441v-53h-441v53zM29 263h441v-52h-441v52z" />
    <glyph glyph-name="greater" unicode="&#x3e;" horiz-adv-x="499" 
d="M29 152l376 182l-376 183v63l441 -219v-53l-441 -218v62z" />
    <glyph glyph-name="question" unicode="?" horiz-adv-x="462" 
d="M177.5 321q13.5 24 32 40.5t50.5 39.5q43 29 64 52t21 57q0 40 -30.5 66.5t-87.5 26.5q-53 0 -91 -21t-68 -61l-50 54q37 48 92.5 75t124.5 27q59 0 103.5 -20.5t68.5 -56t24 -78.5q0 -39 -15.5 -68.5t-38 -49t-58.5 -44.5q-43 -30 -62.5 -50.5t-19.5 -49.5
q0 -12 7.5 -25.5t19.5 -23.5l-61 -26q-39 33 -39 81q0 31 13.5 55zM185.5 84q16.5 16 38.5 16q23 0 39 -16t16 -39q0 -22 -16 -38.5t-39 -16.5q-22 0 -38.5 16.5t-16.5 38.5q0 23 16.5 39z" />
    <glyph glyph-name="at" unicode="@" horiz-adv-x="783" 
d="M90.5 440q55.5 91 147 144.5t194.5 53.5q92 0 164 -42.5t111.5 -115t39.5 -159.5q0 -75 -25 -128.5t-64.5 -80.5t-83.5 -27q-40 0 -64.5 23.5t-26.5 57.5l-1 6q-27 -38 -69.5 -62.5t-88.5 -24.5q-69 0 -111 45t-42 118q0 67 33.5 125t88 92t113.5 34q46 0 79.5 -22
t48.5 -56l13 62h68l-57 -271q-2 -12 -2 -21q0 -25 13.5 -38.5t33.5 -13.5q23 0 48 18t42.5 59t17.5 105q0 81 -35.5 145.5t-99.5 101t-148 36.5q-94 0 -177 -50t-132.5 -133t-49.5 -175q0 -80 37 -144.5t102.5 -101.5t147.5 -37q97 0 186 56l18 -26q-98 -63 -208 -63
q-89 0 -161.5 41.5t-114 113.5t-41.5 159q0 105 55.5 196zM522 369q-10 29 -36.5 51.5t-66.5 22.5q-48 0 -89 -27.5t-64.5 -71.5t-23.5 -92q0 -49 27.5 -80t74.5 -31t85 26t64 64z" />
    <glyph glyph-name="A" unicode="A" horiz-adv-x="658" 
d="M495 148h-332l-59 -148h-95l268 667h103l269 -667h-95zM187 222h283l-141 359z" />
    <glyph glyph-name="B" unicode="B" horiz-adv-x="629" 
d="M78 667h297q86 0 136.5 -47t50.5 -123q0 -60 -34 -101.5t-83 -51.5q35 -5 65 -29t47.5 -60t17.5 -75q0 -81 -51.5 -130.5t-141.5 -49.5h-304v667zM361 378q55 0 85 30t30 77t-30.5 77.5t-84.5 30.5h-200v-215h200zM365 74q58 0 91 31t33 84q0 49 -32.5 82t-91.5 33h-204
v-230h204z" />
    <glyph glyph-name="C" unicode="C" horiz-adv-x="676" 
d="M220 31.5q-78 43.5 -123.5 122.5t-45.5 179t45.5 179t123.5 122.5t174 43.5q84 0 147 -35.5t106 -96.5l-70 -39q-29 43 -78 70t-105 27q-72 0 -131 -34.5t-92.5 -96.5t-33.5 -140t33.5 -139.5t92.5 -96.5t131 -35q56 0 105 26.5t78 70.5l71 -39q-97 -132 -254 -132
q-96 0 -174 43.5z" />
    <glyph glyph-name="D" unicode="D" horiz-adv-x="700" 
d="M78 667h228q101 0 179 -43.5t120.5 -120t42.5 -170.5q0 -95 -42.5 -170.5t-120.5 -119t-179 -43.5h-228v667zM306 74q79 0 137 34.5t88.5 93.5t30.5 131q0 73 -30 132t-88 93.5t-138 34.5h-145v-519h145z" />
    <glyph glyph-name="E" unicode="E" horiz-adv-x="569" 
d="M78 667h437v-74h-354v-215h347v-74h-347v-230h354v-74h-437v667z" />
    <glyph glyph-name="F" unicode="F" horiz-adv-x="550" 
d="M78 667h437v-74h-354v-215h347v-74h-347v-304h-83v667z" />
    <glyph glyph-name="G" unicode="G" horiz-adv-x="713" 
d="M96.5 512.5q45.5 78.5 124 122t173.5 43.5q158 0 259 -125l-66 -41q-32 42 -83.5 67t-109.5 25q-72 0 -131 -34.5t-92.5 -96.5t-33.5 -140t33.5 -140t92.5 -97t131 -35q55 0 102.5 21.5t76.5 50.5v136h-229v74h312v-241q-48 -54 -115.5 -84.5t-146.5 -30.5
q-95 0 -173.5 43.5t-124 122.5t-45.5 180t45.5 179.5z" />
    <glyph glyph-name="H" unicode="H" horiz-adv-x="712" 
d="M551 306h-390v-306h-83v667h83v-287h390v287h83v-667h-83v306z" />
    <glyph glyph-name="I" unicode="I" horiz-adv-x="239" 
d="M78 667h83v-667h-83v667z" />
    <glyph glyph-name="J" unicode="J" horiz-adv-x="475" 
d="M54 128q55 -66 126 -66q61 0 97.5 38.5t36.5 101.5v465h83v-466q0 -104 -59 -158.5t-153 -54.5q-54 0 -97 18.5t-77 58.5z" />
    <glyph glyph-name="K" unicode="K" horiz-adv-x="601" 
d="M228 300l-67 -76v-224h-83v667h83v-345l295 345h104l-278 -317l302 -350h-103z" />
    <glyph glyph-name="L" unicode="L" horiz-adv-x="510" 
d="M78 667h83v-593h310v-74h-393v667z" />
    <glyph glyph-name="M" unicode="M" horiz-adv-x="809" 
d="M648 549l-227 -549h-34l-226 549v-549h-83v667h119l207 -502l208 502h119v-667h-83v549z" />
    <glyph glyph-name="N" unicode="N" horiz-adv-x="708" 
d="M161 532v-532h-83v667h85l384 -521v521h83v-667h-80z" />
    <glyph glyph-name="O" unicode="O" horiz-adv-x="765" 
d="M92.5 509.5q41.5 78.5 117 123.5t172.5 45t172 -45t117 -123.5t42 -176.5t-42 -176.5t-117 -123.5t-172 -45t-172.5 45t-117 123.5t-41.5 176.5t41.5 176.5zM596.5 472.5q-30.5 61.5 -86 96.5t-128.5 35q-74 0 -129.5 -35t-85.5 -96.5t-30 -139.5q0 -77 30 -139t86 -97
t129 -35t128.5 35t86 97t30.5 139q0 78 -30.5 139.5z" />
    <glyph glyph-name="P" unicode="P" horiz-adv-x="587" 
d="M78 667h268q65 0 112.5 -27t72 -73t24.5 -101t-25 -101t-72.5 -73t-111.5 -27h-185v-265h-83v667zM432 557.5q-37 35.5 -96 35.5h-175v-254h175q59 0 96 35.5t37 91.5t-37 91.5z" />
    <glyph glyph-name="Q" unicode="Q" horiz-adv-x="765" 
d="M689.5 196.5q-23.5 -63.5 -67.5 -109.5l63 -68l-58 -50l-64 69q-80 -50 -181 -50q-97 0 -172.5 45t-117 123.5t-41.5 176.5t41.5 176.5t117 123.5t172.5 45t172 -45t117 -123.5t42 -176.5q0 -73 -23.5 -136.5zM509 96l-95 103l58 49l94 -101q29 36 45 83.5t16 102.5
q0 78 -30.5 139.5t-86 96.5t-128.5 35q-74 0 -129.5 -35t-85.5 -96.5t-30 -139.5q0 -77 30 -139t86 -97t129 -35q69 0 127 34z" />
    <glyph glyph-name="R" unicode="R" horiz-adv-x="608" 
d="M294 265h-133v-265h-83v667h268q61 0 108.5 -24.5t74 -70.5t26.5 -106q0 -58 -23.5 -100.5t-63 -66t-86.5 -27.5l180 -272h-98zM432 557.5q-37 35.5 -96 35.5h-175v-255h175q59 0 96 36t37 92t-37 91.5z" />
    <glyph glyph-name="S" unicode="S" horiz-adv-x="586" 
d="M87 157q37 -41 91 -68t119 -27q81 0 119 34.5t38 80.5q0 37 -22.5 60.5t-55.5 36.5t-91 29q-74 19 -118.5 37t-76 54.5t-31.5 97.5q0 54 30 96t82 65.5t117 23.5q149 0 237 -93l-50 -61q-36 40 -86 60t-107 20q-60 0 -98.5 -29.5t-38.5 -76.5q0 -31 21.5 -51.5t52.5 -32
t88 -26.5q74 -20 120.5 -39.5t79.5 -59t33 -104.5q0 -52 -25 -96.5t-80.5 -72t-140.5 -27.5q-83 0 -147.5 28.5t-108.5 77.5z" />
    <glyph glyph-name="T" unicode="T" horiz-adv-x="570" 
d="M243 593h-211v74h506v-74h-212v-593h-83v593z" />
    <glyph glyph-name="U" unicode="U" horiz-adv-x="700" 
d="M78 667h83v-406q0 -93 49 -146t140 -53t140 53t49 146v406h83v-407q0 -127 -69.5 -199.5t-202.5 -72.5t-202.5 72.5t-69.5 198.5v408z" />
    <glyph glyph-name="V" unicode="V" horiz-adv-x="658" 
d="M9 667h95l225 -576l225 576h95l-269 -667h-103z" />
    <glyph glyph-name="W" unicode="W" horiz-adv-x="883" 
d="M441 538l-147 -538h-90l-190 667h92l148 -556l153 556h69l153 -556l147 556h92l-190 -667h-90z" />
    <glyph glyph-name="X" unicode="X" horiz-adv-x="652" 
d="M326 284l-213 -284h-101l260 342l-245 325h101l198 -267l197 267h101l-244 -324l259 -343h-100z" />
    <glyph glyph-name="Y" unicode="Y" horiz-adv-x="626" 
d="M272 282l-263 385h97l207 -310l207 310h97l-262 -385v-282h-83v282z" />
    <glyph glyph-name="Z" unicode="Z" horiz-adv-x="585" 
d="M48 69l375 524h-375v74h481v-69l-375 -524h382v-74h-488v69z" />
    <glyph glyph-name="bracketleft" unicode="[" horiz-adv-x="243" 
d="M40 678h186v-55h-128v-758h128v-55h-186v868z" />
    <glyph glyph-name="backslash" unicode="\" horiz-adv-x="296" 
d="M59 687l237 -707h-59l-237 707h59z" />
    <glyph glyph-name="bracketright" unicode="]" horiz-adv-x="243" 
d="M17 -135h128v758h-128v55h186v-868h-186v55z" />
    <glyph glyph-name="asciicircum" unicode="^" horiz-adv-x="432" 
d="M216 612l-135 -279h-62l169 334h57l168 -334h-62z" />
    <glyph glyph-name="underscore" unicode="_" horiz-adv-x="564" 
d="M-3 -40h570v-55h-570v55z" />
    <glyph glyph-name="grave" unicode="`" horiz-adv-x="226" 
d="M0 700h78l148 -144h-57z" />
    <glyph glyph-name="a" unicode="a" horiz-adv-x="527" 
d="M377 55q-61 -67 -160 -67q-43 0 -81.5 18.5t-63 55t-24.5 86.5q0 51 24.5 87t63 54t81.5 18q103 0 160 -66v87q0 48 -34 75t-88 27q-44 0 -80 -16.5t-68 -50.5l-35 52q39 41 86.5 60.5t106.5 19.5q83 0 135 -40t52 -123v-332h-75v55zM377 193q-21 29 -56.5 44.5
t-76.5 15.5q-52 0 -85.5 -29.5t-33.5 -76.5q0 -46 33.5 -75.5t85.5 -29.5q41 0 76.5 15.5t56.5 44.5v91z" />
    <glyph glyph-name="b" unicode="b" horiz-adv-x="575" 
d="M75 667h75v-257q30 40 72 62.5t91 22.5q63 0 111.5 -31.5t76 -89t27.5 -133.5q0 -77 -27.5 -134.5t-76 -88t-111.5 -30.5q-49 0 -92 23t-71 61v-72h-75v667zM210.5 77q40.5 -22 83.5 -22q72 0 114 52t42 134t-42 134.5t-114 52.5q-43 0 -83.5 -22.5t-60.5 -55.5v-219
q20 -32 60.5 -54z" />
    <glyph glyph-name="c" unicode="c" horiz-adv-x="495" 
d="M77.5 371q30.5 58 85 91t125.5 33q62 0 104 -22t73 -62l-50 -46q-46 63 -123 63q-76 0 -121.5 -52t-45.5 -134t45.5 -134.5t121.5 -52.5t123 63l50 -46q-31 -40 -73 -62t-104 -22q-71 0 -125.5 33t-85 91t-30.5 130q0 71 30.5 129z" />
    <glyph glyph-name="d" unicode="d" horiz-adv-x="575" 
d="M425 72q-28 -38 -71 -61t-92 -23q-63 0 -111.5 30.5t-76 88t-27.5 134.5q0 76 27 133.5t76 89t112 31.5q48 0 90.5 -22.5t72.5 -62.5v257h75v-667h-75v72zM425 350q-21 33 -61.5 55.5t-83.5 22.5q-71 0 -113 -52.5t-42 -134.5t42 -134t113 -52q44 0 84 22t61 54v219z" />
    <glyph glyph-name="e" unicode="e" horiz-adv-x="563" 
d="M78 369q31 58 85 92t122 34q71 0 123.5 -34t80.5 -93t28 -132v-19h-391q5 -71 52 -119t122 -48q42 0 81.5 16t67.5 45l36 -49q-74 -74 -192 -74q-71 0 -127 32t-87.5 90t-31.5 132q0 69 31 127zM200 409q-35 -24 -53.5 -61t-20.5 -76h317q-1 39 -18.5 76t-53 61t-87.5 24
q-49 0 -84 -24z" />
    <glyph glyph-name="f" unicode="f" horiz-adv-x="283" 
d="M96 417h-80v66h80v37q0 74 38 115.5t102 41.5q46 0 73 -17l-19 -56q-19 11 -43 11q-37 0 -56.5 -24.5t-19.5 -70.5v-37h98v-66h-98v-417h-75v417z" />
    <glyph glyph-name="g" unicode="g" horiz-adv-x="574" 
d="M112 -68q29 -35 66.5 -50.5t90.5 -15.5q67 0 111 35.5t44 109.5v69q-27 -38 -70 -62t-92 -24q-63 0 -111.5 30t-76 86.5t-27.5 133.5q0 76 27 133t76 87.5t112 30.5q48 0 90 -22.5t72 -62.5v73h75v-469q0 -111 -65 -160.5t-165 -49.5q-64 0 -109 15.5t-86 56.5zM424 350
q-20 33 -60 55.5t-84 22.5q-72 0 -113.5 -51t-41.5 -133q0 -81 42 -132.5t113 -51.5q43 0 83.5 23t60.5 56v211z" />
    <glyph glyph-name="h" unicode="h" horiz-adv-x="552" 
d="M402 318q0 60 -28 85t-81 25q-41 0 -80.5 -22t-62.5 -53v-353h-75v667h75v-254q28 33 75 57.5t98 24.5q154 0 154 -154v-341h-75v318z" />
    <glyph glyph-name="i" unicode="i" horiz-adv-x="225" 
d="M77 566.5q-15 14.5 -15 35.5t15 36t35 15q21 0 36 -15t15 -36t-15 -35.5t-36 -14.5q-20 0 -35 14.5zM75 483h75v-483h-75v483z" />
    <glyph glyph-name="j" unicode="j" horiz-adv-x="225" 
d="M77 566.5q-15 14.5 -15 35.5t15 36t35 15q21 0 36 -15t15 -36t-15 -35.5t-36 -14.5q-20 0 -35 14.5zM150 -47q0 -71 -37 -110t-105 -39q-32 0 -54 7l10 63q12 -5 36 -5q75 0 75 84v530h75v-530z" />
    <glyph glyph-name="k" unicode="k" horiz-adv-x="514" 
d="M230 217l-80 -79v-138h-75v667h75v-441l254 257h95l-214 -219l215 -264h-96z" />
    <glyph glyph-name="l" unicode="l" horiz-adv-x="225" 
d="M75 667h75v-667h-75v667z" />
    <glyph glyph-name="m" unicode="m" horiz-adv-x="808" 
d="M658 328q0 47 -22 73.5t-67 26.5q-36 0 -72 -22t-56 -52v-354h-75v328q0 100 -89 100q-35 0 -70.5 -22t-56.5 -53v-353h-75v483h75v-70q18 28 63 55t93 27q53 0 86 -25t44 -65q22 36 67 63t95 27q66 0 100.5 -37t34.5 -109v-349h-75v328z" />
    <glyph glyph-name="n" unicode="n" horiz-adv-x="551" 
d="M401 316q0 61 -28 86.5t-80 25.5q-42 0 -81.5 -22t-61.5 -53v-353h-75v483h75v-70q28 33 75 57.5t97 24.5q154 0 154 -156v-339h-75v316z" />
    <glyph glyph-name="o" unicode="o" 
d="M160 22q-54 34 -83.5 92t-29.5 128t29.5 128t83.5 91.5t126 33.5t126 -33.5t83.5 -91.5t29.5 -128t-29.5 -128t-83.5 -92t-126 -34t-126 34zM372 80.5q36 25.5 55 68.5t19 93t-19 92.5t-55 68t-86 25.5t-86.5 -25.5t-55.5 -68t-19 -92.5t19 -93t55.5 -68.5t86.5 -25.5
t86 25.5z" />
    <glyph glyph-name="p" unicode="p" horiz-adv-x="574" 
d="M75 -184v667h75v-72q27 38 70 61t93 23q63 0 112 -30.5t76 -88t27 -134.5t-27 -134.5t-76 -88.5t-112 -31q-49 0 -91.5 22t-71.5 63v-257h-75zM407 376q-42 52 -113 52q-43 0 -83.5 -22.5t-60.5 -54.5v-218q20 -33 60.5 -55.5t83.5 -22.5q71 0 113 52.5t42 134.5t-42 134
z" />
    <glyph glyph-name="q" unicode="q" horiz-adv-x="574" 
d="M424 -184v257q-29 -41 -71 -63t-91 -22q-63 0 -112 31t-76 88.5t-27 134.5t27 134.5t76 88t112 30.5q50 0 92.5 -23t69.5 -61v72h75v-667h-75zM424 351q-20 33 -60 55t-84 22q-71 0 -113 -52t-42 -134t42 -134.5t113 -52.5q44 0 84 22.5t60 55.5v218z" />
    <glyph glyph-name="r" unicode="r" horiz-adv-x="330" 
d="M75 483h75v-78q31 40 72.5 64t88.5 24v-77q-14 3 -30 3q-34 0 -74 -24t-57 -53v-342h-75v483z" />
    <glyph glyph-name="s" unicode="s" horiz-adv-x="465" 
d="M72 118q25 -29 68.5 -49t90.5 -20q54 0 84 23t30 60q0 25 -16.5 40.5t-40.5 23.5t-67 19q-56 13 -90.5 26t-59.5 41t-25 74q0 38 21.5 69.5t62 50.5t96.5 19q109 0 179 -70l-35 -52q-23 27 -61 44t-83 17q-49 0 -78 -21.5t-29 -54.5q0 -31 28.5 -45t89.5 -29
q56 -13 92.5 -27t62.5 -43.5t26 -79.5q0 -64 -50 -105t-140 -41q-123 0 -195 76z" />
    <glyph glyph-name="t" unicode="t" horiz-adv-x="294" 
d="M117 17q-27 29 -27 84v316h-80v66h80v132h75v-132h98v-66h-98v-300q0 -28 12.5 -45t36.5 -17q15 0 29 5.5t22 14.5l22 -56q-33 -31 -90 -31q-53 0 -80 29z" />
    <glyph glyph-name="u" unicode="u" horiz-adv-x="551" 
d="M401 68q-30 -34 -75.5 -57t-96.5 -23q-154 0 -154 154v341h75v-318q0 -60 27.5 -85t80.5 -25q42 0 81.5 21t61.5 52v355h75v-483h-75v68z" />
    <glyph glyph-name="v" unicode="v" horiz-adv-x="490" 
d="M3 483h81l161 -396l160 396h82l-201 -483h-82z" />
    <glyph glyph-name="w" unicode="w" horiz-adv-x="734" 
d="M367 388l-126 -388h-75l-154 483h78l118 -385l127 385h64l127 -385l118 385h78l-154 -483h-75z" />
    <glyph glyph-name="x" unicode="x" horiz-adv-x="486" 
d="M243 198l-145 -198h-86l185 248l-175 235h87l134 -184l134 184h87l-175 -235l186 -248h-87z" />
    <glyph glyph-name="y" unicode="y" horiz-adv-x="490" 
d="M101 -129q26 0 43 11t29 40l32 73l-202 488h81l161 -396l160 396h82l-242 -581q-21 -51 -56.5 -74t-85.5 -24q-30 0 -55 7l12 68q18 -8 41 -8z" />
    <glyph glyph-name="z" unicode="z" horiz-adv-x="472" 
d="M52 58l266 359h-266v66h364v-57l-268 -361h272v-65h-368v58z" />
    <glyph glyph-name="braceleft" unicode="{" horiz-adv-x="260" 
d="M121 -173.5q-29 16.5 -46.5 47.5t-17.5 70v206q0 30 -13.5 49.5t-38.5 19.5v50q25 0 38.5 19.5t13.5 49.5v205q0 40 17.5 70.5t46.5 47.5t61 17h61v-55h-61q-27 0 -46.5 -22.5t-19.5 -57.5v-211q0 -68 -46 -88q46 -20 46 -88v-211q0 -34 19.5 -57t46.5 -23h61v-55h-61
q-32 0 -61 16.5z" />
    <glyph glyph-name="bar" unicode="|" horiz-adv-x="211" 
d="M78 687h55v-707h-55v707z" />
    <glyph glyph-name="braceright" unicode="}" horiz-adv-x="260" 
d="M78 -135q27 0 46.5 23t19.5 57v211q0 68 46 88q-46 20 -46 88v211q0 35 -19.5 57.5t-46.5 22.5h-61v55h61q32 0 61 -16.5t46.5 -47.5t17.5 -71v-205q0 -30 13.5 -49.5t38.5 -19.5v-50q-25 0 -38.5 -19.5t-13.5 -49.5v-206q0 -40 -17.5 -70.5t-46.5 -47t-61 -16.5h-61v55
h61z" />
    <glyph glyph-name="asciitilde" unicode="~" horiz-adv-x="503" 
d="M435 487.5q-30 -64.5 -98 -64.5q-32 0 -53 16t-32.5 38t-24.5 59q-15 40 -27 58.5t-35 18.5q-35 0 -54 -50t-28 -141l-56 7q10 108 40.5 172.5t97.5 64.5q33 0 54 -16t32.5 -38.5t24.5 -58.5q13 -40 25.5 -59t35.5 -19q35 0 54.5 50t27.5 142l56 -7q-10 -108 -40 -172.5z
" />
    <glyph glyph-name="uni00A0" unicode="&#xa0;" horiz-adv-x="258" 
 />
    <glyph glyph-name="exclamdown" unicode="&#xa1;" horiz-adv-x="230" 
d="M153.5 476.5q16.5 -16.5 16.5 -38.5t-16 -38.5t-39 -16.5q-22 0 -38.5 16.5t-16.5 38.5t16.5 38.5t38.5 16.5t38.5 -16.5zM146 296l16 -480h-93l15 480h62z" />
    <glyph glyph-name="cent" unicode="&#xa2;" horiz-adv-x="495" 
d="M415 118l50 -46q-27 -36 -64 -57.5t-90 -25.5v-89h-59v90q-61 8 -107.5 43t-72 89t-25.5 120q0 65 25.5 119t72 89t107.5 43v72h59v-71q53 -4 90 -25.5t64 -57.5l-50 -46q-39 54 -104 62v-371q64 8 104 62zM159 122.5q34 -49.5 93 -62.5v363q-59 -13 -93 -62t-34 -119
t34 -119.5z" />
    <glyph glyph-name="sterling" unicode="&#xa3;" horiz-adv-x="518" 
d="M508 34q-49 -47 -135 -47q-31 0 -52 6t-46 18q-24 11 -40.5 16.5t-40.5 5.5t-53 -10.5t-65 -29.5l-30 62q64 29 98.5 68.5t34.5 84.5q0 30 -15 60h-145v54h106l-7 8q-35 41 -52.5 73t-17.5 77q0 54 30.5 99t82 71.5t111.5 26.5q68 0 121 -29.5t81 -82.5l-67 -40
q-14 34 -48.5 58t-78.5 24q-59 0 -101 -35t-42 -93q0 -39 15 -66.5t44 -62.5q2 -2 22 -28h150v-54h-121q6 -19 6 -43q0 -78 -76 -132q25 9 52 9q22 0 39 -5.5t40 -16.5q20 -9 35 -14t34 -5q31 0 57 12.5t38 27.5z" />
    <glyph glyph-name="currency" unicode="&#xa4;" horiz-adv-x="598" 
d="M526 254q-12 -38 -34 -68l77 -77l-46 -45l-77 75q-60 -46 -147 -46q-88 0 -148 47l-76 -76l-47 45l77 77q-45 64 -45 147q0 86 46 147l-79 79l47 46l78 -79q62 46 147 46q84 0 147 -45l77 77l46 -46l-78 -78q47 -63 47 -147q0 -41 -12 -79zM386.5 184.5
q36.5 23.5 55.5 63t19 85.5t-19 84.5t-55.5 62t-87.5 23.5q-50 0 -87 -23.5t-56 -62.5t-19 -84q0 -46 19 -85.5t56 -63t87 -23.5q51 0 87.5 23.5z" />
    <glyph glyph-name="yen" unicode="&#xa5;" horiz-adv-x="626" 
d="M389 334h216v-52h-250v-107h250v-53h-250v-122h-83v122h-250v53h250v107h-250v52h215l-228 333h97l207 -310l207 310h97z" />
    <glyph glyph-name="brokenbar" unicode="&#xa6;" horiz-adv-x="211" 
d="M78 687h55v-316h-55v316zM78 296h55v-316h-55v316z" />
    <glyph glyph-name="section" unicode="&#xa7;" horiz-adv-x="468" 
d="M394 141q24 -29 24 -75q0 -69 -52 -108t-138 -39q-67 0 -112 21t-82 57l38 49q25 -30 66 -51t90 -21q53 0 85 23t32 64q0 26 -17 42.5t-42.5 26t-68.5 20.5q-56 15 -89.5 28t-57.5 40t-24 72q0 50 32.5 82.5t82.5 45.5q-56 18 -85.5 47t-29.5 76q0 37 21.5 68t62.5 49.5
t96 18.5q63 0 107 -20t71 -51l-34 -45q-24 30 -62.5 45t-79.5 15q-48 0 -78.5 -22t-30.5 -58q0 -23 16 -37.5t39.5 -22.5t65.5 -18q56 -13 91.5 -26.5t61 -43t25.5 -78.5q0 -42 -23.5 -75t-68.5 -53q44 -17 68 -46zM144 357q-25 -24 -25 -59q0 -27 19 -44t44.5 -25.5
t78.5 -21.5q42 18 62.5 41t20.5 57q0 39 -30.5 59t-82.5 33q-62 -16 -87 -40z" />
    <glyph glyph-name="dieresis" unicode="&#xa8;" horiz-adv-x="272" 
d="M0 571q-14 14 -14 33t14 32.5t33 13.5t32.5 -13.5t13.5 -32.5t-13.5 -33t-32.5 -14t-33 14zM206 571q-14 14 -14 33t14 32.5t33 13.5t33 -13.5t14 -32.5t-14 -33t-33 -14t-33 14z" />
    <glyph glyph-name="copyright" unicode="&#xa9;" horiz-adv-x="778" 
d="M216.5 34.5q-79.5 46.5 -126 126t-46.5 172.5q0 94 46.5 173t125.5 125.5t173 46.5t173 -46.5t125.5 -125.5t46.5 -173t-46.5 -173t-125.5 -125.5t-173 -46.5q-93 0 -172.5 46.5zM232 604.5q-72 -42.5 -114.5 -114.5t-42.5 -157t42.5 -157t114.5 -114.5t157 -42.5
t157 42.5t114.5 114.5t42.5 157t-42.5 157t-114.5 114.5t-157 42.5t-157 -42.5zM391 120q-57 0 -104.5 28t-75.5 77t-28 109t28 108.5t75.5 76.5t104.5 28q90 0 146 -66l-25 -24q-19 26 -52.5 41.5t-68.5 15.5q-45 0 -84.5 -22.5t-63 -64t-23.5 -93.5q0 -51 23.5 -92.5
t63 -65t84.5 -23.5q36 0 68.5 16t52.5 42l26 -25q-57 -66 -147 -66z" />
    <glyph glyph-name="ordfeminine" unicode="&#xaa;" horiz-adv-x="378" 
d="M260 361q-40 -43 -107 -43q-44 0 -78 28t-34 76q0 49 33.5 76t78.5 27q67 0 107 -42v55q0 30 -23 47.5t-56 17.5q-27 0 -53 -11.5t-46 -34.5l-25 37q52 54 131 54q57 0 93 -27t36 -84v-211h-57v35zM260 450q-13 18 -36 28t-49 10q-33 0 -54.5 -18.5t-21.5 -47.5
q0 -30 21.5 -48t54.5 -18q26 0 49 10t36 28v56z" />
    <glyph glyph-name="guillemotleft" unicode="&#xab;" horiz-adv-x="439" 
d="M30 243l160 177h75l-160 -177l160 -180h-75zM174 243l160 177h75l-160 -177l160 -180h-75z" />
    <glyph glyph-name="logicalnot" unicode="&#xac;" horiz-adv-x="504" 
d="M415 211v193h-386v53h441v-246h-55z" />
    <glyph glyph-name="uni00AD" unicode="&#xad;" horiz-adv-x="300" 
d="M30 275h240v-66h-240v66z" />
    <glyph glyph-name="registered" unicode="&#xae;" horiz-adv-x="494" 
d="M140.5 281.5q-48.5 28.5 -77 77t-28.5 106.5t28.5 106.5t77 77t106.5 28.5t106.5 -28.5t77 -77t28.5 -106.5t-28.5 -106.5t-77 -77t-106.5 -28.5t-106.5 28.5zM154.5 623.5q-42.5 -24.5 -67 -66.5t-24.5 -92t24.5 -92t67 -67t92.5 -25t92 25t66.5 67t24.5 92t-24.5 92
t-66.5 66.5t-92 24.5t-92.5 -24.5zM242 439h-44v-96h-32v243h99q32 0 54.5 -20.5t22.5 -53.5q0 -25 -11.5 -41t-26.5 -23.5t-24 -7.5l65 -97h-40zM198 558v-90h67q19 0 31.5 12.5t12.5 31.5q0 20 -12.5 33t-31.5 13h-67z" />
    <glyph glyph-name="macron" unicode="&#xaf;" horiz-adv-x="363" 
d="M0 620h363v-48h-363v48z" />
    <glyph glyph-name="degree" unicode="&#xb0;" horiz-adv-x="290" 
d="M58.5 468.5q-35.5 35.5 -35.5 86.5q0 50 35.5 86t85.5 36q51 0 87 -36t36 -86q0 -51 -36 -86.5t-87 -35.5q-50 0 -85.5 35.5zM93 607q-21 -22 -21 -52q0 -31 21 -52.5t51 -21.5q31 0 53 21.5t22 52.5q0 30 -22 52t-53 22q-30 0 -51 -22z" />
    <glyph glyph-name="plusminus" unicode="&#xb1;" horiz-adv-x="499" 
d="M278 110h-57v214h-192v52h192v207h57v-207h192v-52h-192v-214zM29 52h441v-52h-441v52z" />
    <glyph glyph-name="uni00B2" unicode="&#xb2;" horiz-adv-x="388" 
d="M50 466q124 88 176.5 140.5t52.5 98.5q0 36 -25 54.5t-60 18.5q-36 0 -65.5 -15t-46.5 -37l-33 38q24 31 63.5 47t83.5 16q60 0 101.5 -30.5t41.5 -87.5q0 -56 -50 -111.5t-151 -127.5h203v-49h-291v45z" />
    <glyph glyph-name="uni00B3" unicode="&#xb3;" horiz-adv-x="388" 
d="M102 432q-39 18 -60 47l32 38q20 -25 51 -39.5t65 -14.5q43 0 68 19t25 51q0 36 -28.5 52.5t-75.5 16.5q-34 0 -40 -1v50q7 -1 39 -1q45 0 71.5 15.5t26.5 48.5q0 30 -25.5 47t-63.5 17q-64 0 -109 -49l-31 36q25 28 61.5 45t83.5 17q64 0 104 -29t40 -78
q0 -40 -27 -63.5t-62 -29.5q34 -3 65 -28t31 -69q0 -52 -41 -84t-110 -32q-51 0 -90 18z" />
    <glyph glyph-name="acute" unicode="&#xb4;" horiz-adv-x="226" 
d="M0 556l148 144h78l-169 -144h-57z" />
    <glyph glyph-name="uni03BC.1" unicode="&#xb5;" horiz-adv-x="565" 
d="M75 -184v667h75v-318q0 -112 110 -112q41 0 80 22t61 53v355h75v-370q0 -27 12 -42.5t35 -15.5q11 0 19 2l6 -65q-22 -4 -40 -4q-88 0 -104 86q-27 -37 -68 -61.5t-85 -24.5q-75 0 -101 48v-220h-75z" />
    <glyph glyph-name="paragraph" unicode="&#xb6;" horiz-adv-x="449" 
d="M333 622h-89v-722h-45v423q-47 0 -86.5 23t-62.5 62.5t-23 86.5t23 86.5t62.5 62.5t86.5 23h179v-767h-45v722z" />
    <glyph glyph-name="periodcentered" unicode="&#xb7;" horiz-adv-x="230" 
d="M76.5 206q-16.5 16 -16.5 38q0 23 16.5 39t38.5 16q23 0 39 -16t16 -39q0 -22 -16.5 -38t-38.5 -16t-38.5 16z" />
    <glyph glyph-name="cedilla" unicode="&#xb8;" horiz-adv-x="205" 
d="M19 -123q35 -29 80 -29q25 0 43 11.5t18 30.5q0 16 -9.5 25.5t-27.5 9.5q-10 0 -20.5 -4.5t-17.5 -12.5l-33 19l31 84h45l-26 -66q16 11 37 11q29 0 47.5 -18.5t18.5 -48.5q0 -36 -30 -58t-74 -22q-31 0 -58 8.5t-43 21.5z" />
    <glyph glyph-name="uni00B9" unicode="&#xb9;" horiz-adv-x="235" 
d="M115 743l-66 -69l-35 37l108 110h53v-400h-60v322z" />
    <glyph glyph-name="ordmasculine" unicode="&#xba;" horiz-adv-x="405" 
d="M60 566.5q20 37.5 57 59.5t85 22q49 0 86 -22t57 -59.5t20 -83.5t-20 -83.5t-57 -59.5t-86 -22q-48 0 -85 22t-57 59.5t-20 83.5t20 83.5zM278 565.5q-28 32.5 -76 32.5q-47 0 -74.5 -32.5t-27.5 -82.5q0 -51 27.5 -84t74.5 -33q48 0 76 33t28 84q0 50 -28 82.5z" />
    <glyph glyph-name="guillemotright" unicode="&#xbb;" horiz-adv-x="439" 
d="M30 63l160 180l-160 177h75l160 -177l-160 -180h-75zM174 63l160 180l-160 177h75l160 -177l-160 -180h-75z" />
    <glyph glyph-name="onequarter" unicode="&#xbc;" horiz-adv-x="770" 
d="M108 0l426 667h56l-427 -667h-55zM675 0h-59v100h-196v44l172 256h83v-251h58v-49h-58v-100zM480 149h136v198zM115 589l-66 -69l-35 37l108 110h53v-400h-60v322z" />
    <glyph glyph-name="onehalf" unicode="&#xbd;" horiz-adv-x="807" 
d="M108 0l426 667h56l-427 -667h-55zM468 45q124 88 176.5 140.5t52.5 98.5q0 36 -25 54.5t-60 18.5q-36 0 -65.5 -15t-46.5 -37l-33 38q24 31 63.5 47t83.5 16q60 0 101.5 -30.5t41.5 -87.5q0 -56 -50 -111.5t-151 -127.5h203v-49h-291v45zM115 589l-66 -69l-35 37l108 110
h53v-400h-60v322z" />
    <glyph glyph-name="threequarters" unicode="&#xbe;" horiz-adv-x="878" 
d="M216 0l426 667h56l-427 -667h-55zM784 0h-59v100h-196v44l172 256h83v-251h58v-49h-58v-100zM589 149h136v198zM102 278q-39 18 -60 47l32 38q20 -25 51 -39.5t65 -14.5q43 0 68 19t25 51q0 36 -28.5 52.5t-75.5 16.5q-34 0 -40 -1v50q7 -1 39 -1q45 0 71.5 15.5
t26.5 48.5q0 30 -25.5 47t-63.5 17q-64 0 -109 -49l-31 36q25 28 61.5 45t83.5 17q64 0 104 -29t40 -78q0 -40 -27 -63.5t-62 -29.5q34 -3 65 -28t31 -69q0 -52 -41 -84t-110 -32q-51 0 -90 18z" />
    <glyph glyph-name="questiondown" unicode="&#xbf;" horiz-adv-x="394" 
d="M276.5 399q-16.5 -16 -38.5 -16t-38.5 16t-16.5 38q0 23 16.5 39.5t38.5 16.5t38.5 -16.5t16.5 -39.5q0 -22 -16.5 -38zM284 159q-13 -24 -32 -40.5t-51 -38.5q-42 -29 -63 -52.5t-21 -57.5q0 -39 30.5 -65.5t86.5 -26.5q54 0 92 21t68 60l49 -53q-37 -49 -91.5 -75.5
t-124.5 -26.5q-59 0 -103.5 20.5t-68.5 56t-24 78.5q0 55 29 90t83 71q41 29 61 50t20 51q0 12 -7 25.5t-19 22.5l60 27q39 -35 39 -82q0 -31 -13 -55z" />
    <glyph glyph-name="Agrave" unicode="&#xc0;" horiz-adv-x="658" 
d="M160 867h78l148 -144h-57zM495 148h-332l-59 -148h-95l268 667h103l269 -667h-95zM187 222h283l-141 359z" />
    <glyph glyph-name="Aacute" unicode="&#xc1;" horiz-adv-x="658" 
d="M272 723l148 144h78l-169 -144h-57zM495 148h-332l-59 -148h-95l268 667h103l269 -667h-95zM187 222h283l-141 359z" />
    <glyph glyph-name="Acircumflex" unicode="&#xc2;" horiz-adv-x="658" 
d="M329 829l-80 -106h-51l95 144h72l98 -144h-51zM495 148h-332l-59 -148h-95l268 667h103l269 -667h-95zM187 222h283l-141 359z" />
    <glyph glyph-name="Atilde" unicode="&#xc3;" horiz-adv-x="658" 
d="M290.5 803.5q-9.5 9.5 -24.5 9.5q-21 0 -34.5 -21.5t-13.5 -64.5h-45q0 60 25.5 97t71.5 37q26 0 41.5 -13.5t33.5 -39.5q15 -21 24 -30t24 -9q21 0 34.5 21.5t13.5 64.5h45q0 -60 -25.5 -97t-71.5 -37q-27 0 -42.5 13.5t-33.5 39.5q-13 20 -22.5 29.5zM495 148h-332
l-59 -148h-95l268 667h103l269 -667h-95zM187 222h283l-141 359z" />
    <glyph glyph-name="Adieresis" unicode="&#xc4;" horiz-adv-x="658" 
d="M194 738q-14 14 -14 33t14 32.5t33 13.5t32.5 -13.5t13.5 -32.5t-13.5 -33t-32.5 -14t-33 14zM400 738q-14 14 -14 33t14 32.5t33 13.5t33 -13.5t14 -32.5t-14 -33t-33 -14t-33 14zM495 148h-332l-59 -148h-95l268 667h103l269 -667h-95zM187 222h283l-141 359z" />
    <glyph glyph-name="Aring" unicode="&#xc5;" horiz-adv-x="658" 
d="M260 858q29 29 69 29t69 -29t29 -70q0 -40 -28.5 -69t-69.5 -29q-40 0 -69 29t-29 69q0 41 29 70zM370.5 830q-16.5 17 -41.5 17q-24 0 -41 -17t-17 -42q0 -24 17 -41.5t41 -17.5t41 17.5t17 41.5q0 25 -16.5 42zM495 148h-332l-59 -148h-95l268 667h103l269 -667h-95z
M187 222h283l-141 359z" />
    <glyph glyph-name="AE" unicode="&#xc6;" horiz-adv-x="947" 
d="M456 148h-263l-91 -148h-95l416 667h470v-74h-354v-215h347v-74h-347v-230h354v-74h-437v148zM234 222h222v359z" />
    <glyph glyph-name="Ccedilla" unicode="&#xc7;" horiz-adv-x="676" 
d="M404 -12l-15 -39q16 11 37 11q29 0 47.5 -18.5t18.5 -48.5q0 -36 -30 -58t-74 -22q-31 0 -58 8.5t-43 21.5l19 38q35 -29 80 -29q25 0 43 11.5t18 30.5q0 16 -9.5 25.5t-27.5 9.5q-10 0 -20.5 -4.5t-17.5 -12.5l-33 19l22 58q-88 8 -159 53.5t-111 120.5t-40 170
q0 100 45.5 179t123.5 122.5t174 43.5q84 0 147 -35.5t106 -96.5l-70 -39q-29 43 -78 70t-105 27q-72 0 -131 -34.5t-92.5 -96.5t-33.5 -140t33.5 -139.5t92.5 -96.5t131 -35q56 0 105 26.5t78 70.5l71 -39q-93 -128 -244 -132z" />
    <glyph glyph-name="Egrave" unicode="&#xc8;" horiz-adv-x="569" 
d="M127 867h78l148 -144h-57zM78 667h437v-74h-354v-215h347v-74h-347v-230h354v-74h-437v667z" />
    <glyph glyph-name="Eacute" unicode="&#xc9;" horiz-adv-x="569" 
d="M239 723l148 144h78l-169 -144h-57zM78 667h437v-74h-354v-215h347v-74h-347v-230h354v-74h-437v667z" />
    <glyph glyph-name="Ecircumflex" unicode="&#xca;" horiz-adv-x="569" 
d="M294 829l-80 -106h-51l95 144h72l98 -144h-51zM78 667h437v-74h-354v-215h347v-74h-347v-230h354v-74h-437v667z" />
    <glyph glyph-name="Edieresis" unicode="&#xcb;" horiz-adv-x="569" 
d="M160 738q-14 14 -14 33t14 32.5t33 13.5t32.5 -13.5t13.5 -32.5t-13.5 -33t-32.5 -14t-33 14zM366 738q-14 14 -14 33t14 32.5t33 13.5t33 -13.5t14 -32.5t-14 -33t-33 -14t-33 14zM78 667h437v-74h-354v-215h347v-74h-347v-230h354v-74h-437v667z" />
    <glyph glyph-name="Igrave" unicode="&#xcc;" horiz-adv-x="239" 
d="M-50 867h78l148 -144h-57zM78 667h83v-667h-83v667z" />
    <glyph glyph-name="Iacute" unicode="&#xcd;" horiz-adv-x="239" 
d="M63 723l148 144h78l-169 -144h-57zM78 667h83v-667h-83v667z" />
    <glyph glyph-name="Icircumflex" unicode="&#xce;" horiz-adv-x="239" 
d="M119 829l-80 -106h-51l95 144h72l98 -144h-51zM78 667h83v-667h-83v667z" />
    <glyph glyph-name="Idieresis" unicode="&#xcf;" horiz-adv-x="239" 
d="M-16 738q-14 14 -14 33t14 32.5t33 13.5t32.5 -13.5t13.5 -32.5t-13.5 -33t-32.5 -14t-33 14zM190 738q-14 14 -14 33t14 32.5t33 13.5t33 -13.5t14 -32.5t-14 -33t-33 -14t-33 14zM78 667h83v-667h-83v667z" />
    <glyph glyph-name="Eth" unicode="&#xd0;" horiz-adv-x="728" 
d="M513 623.5q78 -43.5 120.5 -120t42.5 -170.5q0 -95 -42.5 -170.5t-120.5 -119t-179 -43.5h-228v298h-96v63h96v306h228q101 0 179 -43.5zM471 108.5q58 34.5 88.5 93.5t30.5 131q0 73 -30 132t-88 93.5t-138 34.5h-145v-232h170v-63h-170v-224h145q79 0 137 34.5z" />
    <glyph glyph-name="Ntilde" unicode="&#xd1;" horiz-adv-x="708" 
d="M313.5 803.5q-9.5 9.5 -24.5 9.5q-21 0 -34.5 -21.5t-13.5 -64.5h-45q0 60 25.5 97t71.5 37q26 0 41.5 -13.5t33.5 -39.5q15 -21 24 -30t24 -9q21 0 34.5 21.5t13.5 64.5h45q0 -60 -25.5 -97t-71.5 -37q-27 0 -42.5 13.5t-33.5 39.5q-13 20 -22.5 29.5zM161 532v-532h-83
v667h85l384 -521v521h83v-667h-80z" />
    <glyph glyph-name="Ograve" unicode="&#xd2;" horiz-adv-x="765" 
d="M214 867h78l148 -144h-57zM92.5 509.5q41.5 78.5 117 123.5t172.5 45t172 -45t117 -123.5t42 -176.5t-42 -176.5t-117 -123.5t-172 -45t-172.5 45t-117 123.5t-41.5 176.5t41.5 176.5zM596.5 472.5q-30.5 61.5 -86 96.5t-128.5 35q-74 0 -129.5 -35t-85.5 -96.5
t-30 -139.5q0 -77 30 -139t86 -97t129 -35t128.5 35t86 97t30.5 139q0 78 -30.5 139.5z" />
    <glyph glyph-name="Oacute" unicode="&#xd3;" horiz-adv-x="765" 
d="M326 723l148 144h78l-169 -144h-57zM92.5 509.5q41.5 78.5 117 123.5t172.5 45t172 -45t117 -123.5t42 -176.5t-42 -176.5t-117 -123.5t-172 -45t-172.5 45t-117 123.5t-41.5 176.5t41.5 176.5zM596.5 472.5q-30.5 61.5 -86 96.5t-128.5 35q-74 0 -129.5 -35t-85.5 -96.5
t-30 -139.5q0 -77 30 -139t86 -97t129 -35t128.5 35t86 97t30.5 139q0 78 -30.5 139.5z" />
    <glyph glyph-name="Ocircumflex" unicode="&#xd4;" horiz-adv-x="765" 
d="M383 829l-80 -106h-51l95 144h72l98 -144h-51zM92.5 509.5q41.5 78.5 117 123.5t172.5 45t172 -45t117 -123.5t42 -176.5t-42 -176.5t-117 -123.5t-172 -45t-172.5 45t-117 123.5t-41.5 176.5t41.5 176.5zM596.5 472.5q-30.5 61.5 -86 96.5t-128.5 35q-74 0 -129.5 -35
t-85.5 -96.5t-30 -139.5q0 -77 30 -139t86 -97t129 -35t128.5 35t86 97t30.5 139q0 78 -30.5 139.5z" />
    <glyph glyph-name="Otilde" unicode="&#xd5;" horiz-adv-x="765" 
d="M343.5 803.5q-9.5 9.5 -24.5 9.5q-21 0 -34.5 -21.5t-13.5 -64.5h-45q0 60 25.5 97t71.5 37q26 0 41.5 -13.5t33.5 -39.5q15 -21 24 -30t24 -9q21 0 34.5 21.5t13.5 64.5h45q0 -60 -25.5 -97t-71.5 -37q-27 0 -42.5 13.5t-33.5 39.5q-13 20 -22.5 29.5zM92.5 509.5
q41.5 78.5 117 123.5t172.5 45t172 -45t117 -123.5t42 -176.5t-42 -176.5t-117 -123.5t-172 -45t-172.5 45t-117 123.5t-41.5 176.5t41.5 176.5zM596.5 472.5q-30.5 61.5 -86 96.5t-128.5 35q-74 0 -129.5 -35t-85.5 -96.5t-30 -139.5q0 -77 30 -139t86 -97t129 -35
t128.5 35t86 97t30.5 139q0 78 -30.5 139.5z" />
    <glyph glyph-name="Odieresis" unicode="&#xd6;" horiz-adv-x="765" 
d="M246 738q-14 14 -14 33t14 32.5t33 13.5t32.5 -13.5t13.5 -32.5t-13.5 -33t-32.5 -14t-33 14zM452 738q-14 14 -14 33t14 32.5t33 13.5t33 -13.5t14 -32.5t-14 -33t-33 -14t-33 14zM92.5 509.5q41.5 78.5 117 123.5t172.5 45t172 -45t117 -123.5t42 -176.5t-42 -176.5
t-117 -123.5t-172 -45t-172.5 45t-117 123.5t-41.5 176.5t41.5 176.5zM596.5 472.5q-30.5 61.5 -86 96.5t-128.5 35q-74 0 -129.5 -35t-85.5 -96.5t-30 -139.5q0 -77 30 -139t86 -97t129 -35t128.5 35t86 97t30.5 139q0 78 -30.5 139.5z" />
    <glyph glyph-name="multiply" unicode="&#xd7;" horiz-adv-x="499" 
d="M101 148l-37 37l148 149l-148 148l37 38l148 -149l149 149l37 -38l-148 -148l148 -149l-37 -37l-149 149z" />
    <glyph glyph-name="Oslash" unicode="&#xd8;" horiz-adv-x="765" 
d="M682 487.5q31 -70.5 31 -154.5q0 -98 -42 -176.5t-117 -123.5t-172 -45t-173 45l-22 -33h-66l44 65q-54 48 -84 117t-30 151q0 98 41.5 176.5t117 123.5t172.5 45q92 0 167 -42l21 31h66l-42 -62q57 -47 88 -117.5zM156 220.5q19 -51.5 54 -88.5l296 440q-58 32 -124 32
q-74 0 -129.5 -35t-85.5 -96.5t-30 -139.5q0 -61 19 -112.5zM510.5 97q55.5 35 86 97t30.5 139q0 63 -20 116t-57 89l-297 -441q57 -35 129 -35q73 0 128.5 35z" />
    <glyph glyph-name="Ugrave" unicode="&#xd9;" horiz-adv-x="700" 
d="M181 867h78l148 -144h-57zM78 667h83v-406q0 -93 49 -146t140 -53t140 53t49 146v406h83v-407q0 -127 -69.5 -199.5t-202.5 -72.5t-202.5 72.5t-69.5 198.5v408z" />
    <glyph glyph-name="Uacute" unicode="&#xda;" horiz-adv-x="700" 
d="M293 723l148 144h78l-169 -144h-57zM78 667h83v-406q0 -93 49 -146t140 -53t140 53t49 146v406h83v-407q0 -127 -69.5 -199.5t-202.5 -72.5t-202.5 72.5t-69.5 198.5v408z" />
    <glyph glyph-name="Ucircumflex" unicode="&#xdb;" horiz-adv-x="700" 
d="M351 829l-80 -106h-51l95 144h72l98 -144h-51zM78 667h83v-406q0 -93 49 -146t140 -53t140 53t49 146v406h83v-407q0 -127 -69.5 -199.5t-202.5 -72.5t-202.5 72.5t-69.5 198.5v408z" />
    <glyph glyph-name="Udieresis" unicode="&#xdc;" horiz-adv-x="700" 
d="M215 738q-14 14 -14 33t14 32.5t33 13.5t32.5 -13.5t13.5 -32.5t-13.5 -33t-32.5 -14t-33 14zM421 738q-14 14 -14 33t14 32.5t33 13.5t33 -13.5t14 -32.5t-14 -33t-33 -14t-33 14zM78 667h83v-406q0 -93 49 -146t140 -53t140 53t49 146v406h83v-407q0 -127 -69.5 -199.5
t-202.5 -72.5t-202.5 72.5t-69.5 198.5v408z" />
    <glyph glyph-name="Yacute" unicode="&#xdd;" horiz-adv-x="626" 
d="M256 723l148 144h78l-169 -144h-57zM272 282l-263 385h97l207 -310l207 310h97l-262 -385v-282h-83v282z" />
    <glyph glyph-name="Thorn" unicode="&#xde;" horiz-adv-x="587" 
d="M78 667h83v-119h185q65 0 112.5 -27t72 -73.5t24.5 -101.5t-25 -100.5t-72.5 -72.5t-111.5 -27h-185v-146h-83v667zM432 438q-37 36 -96 36h-175v-254h175q59 0 96 35t37 91t-37 92z" />
    <glyph glyph-name="germandbls" unicode="&#xdf;" horiz-adv-x="597" 
d="M284.5 8q-41.5 20 -78.5 58l38 52q23 -30 61.5 -49.5t86.5 -19.5q54 0 83.5 24.5t29.5 59.5q0 24 -15.5 39.5t-39 24.5t-65.5 20q-52 13 -86 26t-57.5 40.5t-23.5 72.5q0 41 23 67t64 52q31 21 45 34.5t14 32.5q0 32 -30 50t-69 18q-49 0 -82 -30.5t-33 -80.5v-499h-75
v499q0 49 23.5 89.5t67 64.5t100.5 24q72 0 123.5 -34.5t51.5 -91.5q0 -39 -21.5 -62.5t-62.5 -50.5q-33 -22 -49.5 -39t-16.5 -42q0 -30 27.5 -44.5t85.5 -27.5q54 -13 89 -27t60 -43.5t25 -79.5q0 -40 -21 -73.5t-63 -53.5t-102 -20q-66 0 -107.5 20z" />
    <glyph glyph-name="agrave" unicode="&#xe0;" horiz-adv-x="527" 
d="M377 55q-61 -67 -160 -67q-43 0 -81.5 18.5t-63 55t-24.5 86.5q0 51 24.5 87t63 54t81.5 18q103 0 160 -66v87q0 48 -34 75t-88 27q-44 0 -80 -16.5t-68 -50.5l-35 52q39 41 86.5 60.5t106.5 19.5q83 0 135 -40t52 -123v-332h-75v55zM377 193q-21 29 -56.5 44.5
t-76.5 15.5q-52 0 -85.5 -29.5t-33.5 -76.5q0 -46 33.5 -75.5t85.5 -29.5q41 0 76.5 15.5t56.5 44.5v91zM96 700h78l148 -144h-57z" />
    <glyph glyph-name="aacute" unicode="&#xe1;" horiz-adv-x="527" 
d="M377 55q-61 -67 -160 -67q-43 0 -81.5 18.5t-63 55t-24.5 86.5q0 51 24.5 87t63 54t81.5 18q103 0 160 -66v87q0 48 -34 75t-88 27q-44 0 -80 -16.5t-68 -50.5l-35 52q39 41 86.5 60.5t106.5 19.5q83 0 135 -40t52 -123v-332h-75v55zM377 193q-21 29 -56.5 44.5
t-76.5 15.5q-52 0 -85.5 -29.5t-33.5 -76.5q0 -46 33.5 -75.5t85.5 -29.5q41 0 76.5 15.5t56.5 44.5v91zM208 556l148 144h78l-169 -144h-57z" />
    <glyph glyph-name="acircumflex" unicode="&#xe2;" horiz-adv-x="527" 
d="M377 55q-61 -67 -160 -67q-43 0 -81.5 18.5t-63 55t-24.5 86.5q0 51 24.5 87t63 54t81.5 18q103 0 160 -66v87q0 48 -34 75t-88 27q-44 0 -80 -16.5t-68 -50.5l-35 52q39 41 86.5 60.5t106.5 19.5q83 0 135 -40t52 -123v-332h-75v55zM377 193q-21 29 -56.5 44.5
t-76.5 15.5q-52 0 -85.5 -29.5t-33.5 -76.5q0 -46 33.5 -75.5t85.5 -29.5q41 0 76.5 15.5t56.5 44.5v91zM264 662l-80 -106h-51l95 144h72l98 -144h-51z" />
    <glyph glyph-name="atilde" unicode="&#xe3;" horiz-adv-x="527" 
d="M377 55q-61 -67 -160 -67q-43 0 -81.5 18.5t-63 55t-24.5 86.5q0 51 24.5 87t63 54t81.5 18q103 0 160 -66v87q0 48 -34 75t-88 27q-44 0 -80 -16.5t-68 -50.5l-35 52q39 41 86.5 60.5t106.5 19.5q83 0 135 -40t52 -123v-332h-75v55zM377 193q-21 29 -56.5 44.5
t-76.5 15.5q-52 0 -85.5 -29.5t-33.5 -76.5q0 -46 33.5 -75.5t85.5 -29.5q41 0 76.5 15.5t56.5 44.5v91zM226.5 636.5q-9.5 9.5 -24.5 9.5q-21 0 -34.5 -21.5t-13.5 -64.5h-45q0 60 25.5 97t71.5 37q26 0 41.5 -13.5t33.5 -39.5q15 -21 24 -30t24 -9q21 0 34.5 21.5
t13.5 64.5h45q0 -60 -25.5 -97t-71.5 -37q-27 0 -42.5 13.5t-33.5 39.5q-13 20 -22.5 29.5z" />
    <glyph glyph-name="adieresis" unicode="&#xe4;" horiz-adv-x="527" 
d="M377 55q-61 -67 -160 -67q-43 0 -81.5 18.5t-63 55t-24.5 86.5q0 51 24.5 87t63 54t81.5 18q103 0 160 -66v87q0 48 -34 75t-88 27q-44 0 -80 -16.5t-68 -50.5l-35 52q39 41 86.5 60.5t106.5 19.5q83 0 135 -40t52 -123v-332h-75v55zM377 193q-21 29 -56.5 44.5
t-76.5 15.5q-52 0 -85.5 -29.5t-33.5 -76.5q0 -46 33.5 -75.5t85.5 -29.5q41 0 76.5 15.5t56.5 44.5v91zM129 571q-14 14 -14 33t14 32.5t33 13.5t32.5 -13.5t13.5 -32.5t-13.5 -33t-32.5 -14t-33 14zM335 571q-14 14 -14 33t14 32.5t33 13.5t33 -13.5t14 -32.5t-14 -33
t-33 -14t-33 14z" />
    <glyph glyph-name="aring" unicode="&#xe5;" horiz-adv-x="527" 
d="M377 55q-61 -67 -160 -67q-43 0 -81.5 18.5t-63 55t-24.5 86.5q0 51 24.5 87t63 54t81.5 18q103 0 160 -66v87q0 48 -34 75t-88 27q-44 0 -80 -16.5t-68 -50.5l-35 52q39 41 86.5 60.5t106.5 19.5q83 0 135 -40t52 -123v-332h-75v55zM377 193q-21 29 -56.5 44.5
t-76.5 15.5q-52 0 -85.5 -29.5t-33.5 -76.5q0 -46 33.5 -75.5t85.5 -29.5q41 0 76.5 15.5t56.5 44.5v91zM196 711q29 29 69 29t69 -29t29 -70q0 -40 -28.5 -69t-69.5 -29q-40 0 -69 29t-29 69q0 41 29 70zM306.5 683q-16.5 17 -41.5 17q-24 0 -41 -17t-17 -42
q0 -24 17 -41.5t41 -17.5t41 17.5t17 41.5q0 25 -16.5 42z" />
    <glyph glyph-name="ae" unicode="&#xe6;" horiz-adv-x="889" 
d="M524 99q43 -47 113 -47q40 0 76 15.5t63 45.5l36 -51q-35 -36 -81 -55t-97 -19q-65 0 -114.5 28.5t-78.5 87.5q-26 -52 -79.5 -84t-119.5 -32q-82 0 -138 42.5t-56 117.5q0 50 24.5 86t65 54.5t88.5 18.5q112 0 175 -64v86q0 47 -36.5 74t-96.5 27q-48 0 -87 -16t-74 -51
l-35 52q79 80 205 80q64 0 111 -26t60 -79q27 47 72 76t107 29q67 0 116 -34t74.5 -93t25.5 -132v-19h-367q5 -71 48 -118zM752.5 348q-15.5 37 -48.5 61t-82 24q-45 0 -77.5 -24t-49.5 -61t-19 -76h293q-1 39 -16.5 76zM338 237q-39 16 -82 16q-59 0 -95 -27.5t-36 -73.5
q0 -45 36 -72.5t95 -27.5q41 0 74 18.5t52 48t19 61.5v12q-24 29 -63 45z" />
    <glyph glyph-name="ccedilla" unicode="&#xe7;" horiz-adv-x="495" 
d="M415 118l50 -46q-59 -78 -159 -83l-16 -42q16 11 37 11q29 0 47.5 -18.5t18.5 -48.5q0 -36 -29.5 -58t-74.5 -22q-31 0 -58 8.5t-43 21.5l19 38q36 -29 80 -29q26 0 44 11.5t18 30.5q0 16 -10 25.5t-28 9.5q-10 0 -20.5 -4.5t-16.5 -12.5l-34 19l22 60q-64 6 -113 40.5
t-75.5 90t-26.5 122.5q0 71 30.5 129t85 91t125.5 33q62 0 104 -22t73 -62l-50 -46q-46 63 -123 63q-76 0 -121.5 -52t-45.5 -134t45.5 -134.5t121.5 -52.5t123 63z" />
    <glyph glyph-name="egrave" unicode="&#xe8;" horiz-adv-x="563" 
d="M78 369q31 58 85 92t122 34q71 0 123.5 -34t80.5 -93t28 -132v-19h-391q5 -71 52 -119t122 -48q42 0 81.5 16t67.5 45l36 -49q-74 -74 -192 -74q-71 0 -127 32t-87.5 90t-31.5 132q0 69 31 127zM200 409q-35 -24 -53.5 -61t-20.5 -76h317q-1 39 -18.5 76t-53 61t-87.5 24
q-49 0 -84 -24zM116 700h78l148 -144h-57z" />
    <glyph glyph-name="eacute" unicode="&#xe9;" horiz-adv-x="563" 
d="M78 369q31 58 85 92t122 34q71 0 123.5 -34t80.5 -93t28 -132v-19h-391q5 -71 52 -119t122 -48q42 0 81.5 16t67.5 45l36 -49q-74 -74 -192 -74q-71 0 -127 32t-87.5 90t-31.5 132q0 69 31 127zM200 409q-35 -24 -53.5 -61t-20.5 -76h317q-1 39 -18.5 76t-53 61t-87.5 24
q-49 0 -84 -24zM228 556l148 144h78l-169 -144h-57z" />
    <glyph glyph-name="ecircumflex" unicode="&#xea;" horiz-adv-x="563" 
d="M78 369q31 58 85 92t122 34q71 0 123.5 -34t80.5 -93t28 -132v-19h-391q5 -71 52 -119t122 -48q42 0 81.5 16t67.5 45l36 -49q-74 -74 -192 -74q-71 0 -127 32t-87.5 90t-31.5 132q0 69 31 127zM200 409q-35 -24 -53.5 -61t-20.5 -76h317q-1 39 -18.5 76t-53 61t-87.5 24
q-49 0 -84 -24zM285 662l-80 -106h-51l95 144h72l98 -144h-51z" />
    <glyph glyph-name="edieresis" unicode="&#xeb;" horiz-adv-x="563" 
d="M78 369q31 58 85 92t122 34q71 0 123.5 -34t80.5 -93t28 -132v-19h-391q5 -71 52 -119t122 -48q42 0 81.5 16t67.5 45l36 -49q-74 -74 -192 -74q-71 0 -127 32t-87.5 90t-31.5 132q0 69 31 127zM200 409q-35 -24 -53.5 -61t-20.5 -76h317q-1 39 -18.5 76t-53 61t-87.5 24
q-49 0 -84 -24zM150 571q-14 14 -14 33t14 32.5t33 13.5t32.5 -13.5t13.5 -32.5t-13.5 -33t-32.5 -14t-33 14zM356 571q-14 14 -14 33t14 32.5t33 13.5t33 -13.5t14 -32.5t-14 -33t-33 -14t-33 14z" />
    <glyph glyph-name="igrave" unicode="&#xec;" horiz-adv-x="225" 
d="M-57 700h78l148 -144h-57zM75 483h75v-483h-75v483z" />
    <glyph glyph-name="iacute" unicode="&#xed;" horiz-adv-x="225" 
d="M56 556l148 144h78l-169 -144h-57zM75 483h75v-483h-75v483z" />
    <glyph glyph-name="icircumflex" unicode="&#xee;" horiz-adv-x="225" 
d="M111 662l-80 -106h-51l95 144h72l98 -144h-51zM75 483h75v-483h-75v483z" />
    <glyph glyph-name="idieresis" unicode="&#xef;" horiz-adv-x="225" 
d="M-23 571q-14 14 -14 33t14 32.5t33 13.5t32.5 -13.5t13.5 -32.5t-13.5 -33t-32.5 -14t-33 14zM183 571q-14 14 -14 33t14 32.5t33 13.5t33 -13.5t14 -32.5t-14 -33t-33 -14t-33 14zM75 483h75v-483h-75v483z" />
    <glyph glyph-name="eth" unicode="&#xf0;" 
d="M525 247q0 -74 -29.5 -133t-83.5 -92.5t-126 -33.5q-71 0 -125 32t-84 88t-30 126q0 69 28 125t78.5 88t113.5 32q48 0 87 -21.5t71 -67.5q-49 88 -160 171l-143 -64l-18 42l118 52l-75 48l41 62q67 -41 112 -76l108 48l17 -41l-85 -38q185 -159 185 -347zM372 79.5
q36 24.5 55 65.5t19 89t-19 88.5t-55 65t-86 24.5t-86.5 -24.5t-55.5 -65t-19 -88.5t19 -89t55.5 -65.5t86.5 -24.5t86 24.5z" />
    <glyph glyph-name="ntilde" unicode="&#xf1;" horiz-adv-x="551" 
d="M401 316q0 61 -28 86.5t-80 25.5q-42 0 -81.5 -22t-61.5 -53v-353h-75v483h75v-70q28 33 75 57.5t97 24.5q154 0 154 -156v-339h-75v316zM237.5 636.5q-9.5 9.5 -24.5 9.5q-21 0 -34.5 -21.5t-13.5 -64.5h-45q0 60 25.5 97t71.5 37q26 0 41.5 -13.5t33.5 -39.5
q15 -21 24 -30t24 -9q21 0 34.5 21.5t13.5 64.5h45q0 -60 -25.5 -97t-71.5 -37q-27 0 -42.5 13.5t-33.5 39.5q-13 20 -22.5 29.5z" />
    <glyph glyph-name="ograve" unicode="&#xf2;" 
d="M160 22q-54 34 -83.5 92t-29.5 128t29.5 128t83.5 91.5t126 33.5t126 -33.5t83.5 -91.5t29.5 -128t-29.5 -128t-83.5 -92t-126 -34t-126 34zM372 80.5q36 25.5 55 68.5t19 93t-19 92.5t-55 68t-86 25.5t-86.5 -25.5t-55.5 -68t-19 -92.5t19 -93t55.5 -68.5t86.5 -25.5
t86 25.5zM117 700h78l148 -144h-57z" />
    <glyph glyph-name="oacute" unicode="&#xf3;" 
d="M160 22q-54 34 -83.5 92t-29.5 128t29.5 128t83.5 91.5t126 33.5t126 -33.5t83.5 -91.5t29.5 -128t-29.5 -128t-83.5 -92t-126 -34t-126 34zM372 80.5q36 25.5 55 68.5t19 93t-19 92.5t-55 68t-86 25.5t-86.5 -25.5t-55.5 -68t-19 -92.5t19 -93t55.5 -68.5t86.5 -25.5
t86 25.5zM229 556l148 144h78l-169 -144h-57z" />
    <glyph glyph-name="ocircumflex" unicode="&#xf4;" 
d="M160 22q-54 34 -83.5 92t-29.5 128t29.5 128t83.5 91.5t126 33.5t126 -33.5t83.5 -91.5t29.5 -128t-29.5 -128t-83.5 -92t-126 -34t-126 34zM372 80.5q36 25.5 55 68.5t19 93t-19 92.5t-55 68t-86 25.5t-86.5 -25.5t-55.5 -68t-19 -92.5t19 -93t55.5 -68.5t86.5 -25.5
t86 25.5zM285 662l-80 -106h-51l95 144h72l98 -144h-51z" />
    <glyph glyph-name="otilde" unicode="&#xf5;" 
d="M160 22q-54 34 -83.5 92t-29.5 128t29.5 128t83.5 91.5t126 33.5t126 -33.5t83.5 -91.5t29.5 -128t-29.5 -128t-83.5 -92t-126 -34t-126 34zM372 80.5q36 25.5 55 68.5t19 93t-19 92.5t-55 68t-86 25.5t-86.5 -25.5t-55.5 -68t-19 -92.5t19 -93t55.5 -68.5t86.5 -25.5
t86 25.5zM247.5 636.5q-9.5 9.5 -24.5 9.5q-21 0 -34.5 -21.5t-13.5 -64.5h-45q0 60 25.5 97t71.5 37q26 0 41.5 -13.5t33.5 -39.5q15 -21 24 -30t24 -9q21 0 34.5 21.5t13.5 64.5h45q0 -60 -25.5 -97t-71.5 -37q-27 0 -42.5 13.5t-33.5 39.5q-13 20 -22.5 29.5z" />
    <glyph glyph-name="odieresis" unicode="&#xf6;" 
d="M160 22q-54 34 -83.5 92t-29.5 128t29.5 128t83.5 91.5t126 33.5t126 -33.5t83.5 -91.5t29.5 -128t-29.5 -128t-83.5 -92t-126 -34t-126 34zM372 80.5q36 25.5 55 68.5t19 93t-19 92.5t-55 68t-86 25.5t-86.5 -25.5t-55.5 -68t-19 -92.5t19 -93t55.5 -68.5t86.5 -25.5
t86 25.5zM150 571q-14 14 -14 33t14 32.5t33 13.5t32.5 -13.5t13.5 -32.5t-13.5 -33t-32.5 -14t-33 14zM356 571q-14 14 -14 33t14 32.5t33 13.5t33 -13.5t14 -32.5t-14 -33t-33 -14t-33 14z" />
    <glyph glyph-name="divide" unicode="&#xf7;" horiz-adv-x="511" 
d="M223 493.5q-13 13.5 -13 32.5t13 32.5t32 13.5q20 0 33.5 -13.5t13.5 -32.5t-14 -32.5t-33 -13.5t-32 13.5zM29 363h453v-52h-453v52zM223 111.5q-13 13.5 -13 32.5t13 32.5t32 13.5t33 -13.5t14 -32.5t-14 -32.5t-33 -13.5t-32 13.5z" />
    <glyph glyph-name="oslash" unicode="&#xf8;" 
d="M507 344q18 -47 18 -102q0 -70 -29.5 -128t-83.5 -92t-126 -34q-81 0 -142 45l-26 -33h-54l48 61q-32 35 -48.5 81.5t-16.5 99.5q0 70 29.5 128t83.5 91.5t126 33.5q79 0 137 -41l23 29h54l-45 -57q34 -35 52 -82zM160 121l218 277q-38 30 -92 30q-50 0 -86.5 -25.5
t-55.5 -68t-19 -92.5q0 -69 35 -121zM372 80.5q36 25.5 55 68.5t19 93q0 73 -38 125l-220 -278q42 -34 98 -34q50 0 86 25.5z" />
    <glyph glyph-name="ugrave" unicode="&#xf9;" horiz-adv-x="551" 
d="M401 68q-30 -34 -75.5 -57t-96.5 -23q-154 0 -154 154v341h75v-318q0 -60 27.5 -85t80.5 -25q42 0 81.5 21t61.5 52v355h75v-483h-75v68zM106 700h78l148 -144h-57z" />
    <glyph glyph-name="uacute" unicode="&#xfa;" horiz-adv-x="551" 
d="M401 68q-30 -34 -75.5 -57t-96.5 -23q-154 0 -154 154v341h75v-318q0 -60 27.5 -85t80.5 -25q42 0 81.5 21t61.5 52v355h75v-483h-75v68zM218 556l148 144h78l-169 -144h-57z" />
    <glyph glyph-name="ucircumflex" unicode="&#xfb;" horiz-adv-x="551" 
d="M401 68q-30 -34 -75.5 -57t-96.5 -23q-154 0 -154 154v341h75v-318q0 -60 27.5 -85t80.5 -25q42 0 81.5 21t61.5 52v355h75v-483h-75v68zM274 662l-80 -106h-51l95 144h72l98 -144h-51z" />
    <glyph glyph-name="udieresis" unicode="&#xfc;" horiz-adv-x="551" 
d="M401 68q-30 -34 -75.5 -57t-96.5 -23q-154 0 -154 154v341h75v-318q0 -60 27.5 -85t80.5 -25q42 0 81.5 21t61.5 52v355h75v-483h-75v68zM141 571q-14 14 -14 33t14 32.5t33 13.5t32.5 -13.5t13.5 -32.5t-13.5 -33t-32.5 -14t-33 14zM347 571q-14 14 -14 33t14 32.5
t33 13.5t33 -13.5t14 -32.5t-14 -33t-33 -14t-33 14z" />
    <glyph glyph-name="yacute" unicode="&#xfd;" horiz-adv-x="490" 
d="M101 -129q26 0 43 11t29 40l32 73l-202 488h81l161 -396l160 396h82l-242 -581q-21 -51 -56.5 -74t-85.5 -24q-30 0 -55 7l12 68q18 -8 41 -8zM188 556l148 144h78l-169 -144h-57z" />
    <glyph glyph-name="thorn" unicode="&#xfe;" horiz-adv-x="574" 
d="M150 -184h-75v851h75v-256q27 38 70 61t93 23q63 0 112 -30.5t76 -88t27 -134.5t-27 -134.5t-76 -88.5t-112 -31q-49 0 -91.5 22t-71.5 63v-257zM407 376q-42 52 -113 52q-43 0 -83.5 -22.5t-60.5 -54.5v-218q20 -33 60.5 -55.5t83.5 -22.5q71 0 113 52.5t42 134.5
t-42 134z" />
    <glyph glyph-name="ydieresis" unicode="&#xff;" horiz-adv-x="490" 
d="M101 -129q26 0 43 11t29 40l32 73l-202 488h81l161 -396l160 396h82l-242 -581q-21 -51 -56.5 -74t-85.5 -24q-30 0 -55 7l12 68q18 -8 41 -8zM109 571q-14 14 -14 33t14 32.5t33 13.5t32.5 -13.5t13.5 -32.5t-13.5 -33t-32.5 -14t-33 14zM315 571q-14 14 -14 33t14 32.5
t33 13.5t33 -13.5t14 -32.5t-14 -33t-33 -14t-33 14z" />
    <glyph glyph-name="Amacron" unicode="&#x100;" horiz-adv-x="658" 
d="M495 148h-332l-59 -148h-95l268 667h103l269 -667h-95zM187 222h283l-141 359zM147 787h363v-48h-363v48z" />
    <glyph glyph-name="amacron" unicode="&#x101;" horiz-adv-x="527" 
d="M377 55q-61 -67 -160 -67q-43 0 -81.5 18.5t-63 55t-24.5 86.5q0 51 24.5 87t63 54t81.5 18q103 0 160 -66v87q0 48 -34 75t-88 27q-44 0 -80 -16.5t-68 -50.5l-35 52q39 41 86.5 60.5t106.5 19.5q83 0 135 -40t52 -123v-332h-75v55zM377 193q-21 29 -56.5 44.5
t-76.5 15.5q-52 0 -85.5 -29.5t-33.5 -76.5q0 -46 33.5 -75.5t85.5 -29.5q41 0 76.5 15.5t56.5 44.5v91zM82 620h363v-48h-363v48z" />
    <glyph glyph-name="Abreve" unicode="&#x102;" horiz-adv-x="658" 
d="M495 148h-332l-59 -148h-95l268 667h103l269 -667h-95zM187 222h283l-141 359zM230 728.5q-46 23.5 -77 64.5l37 32q25 -34 60.5 -53t78.5 -19t78.5 19t59.5 53l37 -32q-31 -41 -76.5 -64.5t-98.5 -23.5t-99 23.5z" />
    <glyph glyph-name="abreve" unicode="&#x103;" horiz-adv-x="527" 
d="M377 55q-61 -67 -160 -67q-43 0 -81.5 18.5t-63 55t-24.5 86.5q0 51 24.5 87t63 54t81.5 18q103 0 160 -66v87q0 48 -34 75t-88 27q-44 0 -80 -16.5t-68 -50.5l-35 52q39 41 86.5 60.5t106.5 19.5q83 0 135 -40t52 -123v-332h-75v55zM377 193q-21 29 -56.5 44.5
t-76.5 15.5q-52 0 -85.5 -29.5t-33.5 -76.5q0 -46 33.5 -75.5t85.5 -29.5q41 0 76.5 15.5t56.5 44.5v91zM165 561.5q-46 23.5 -77 64.5l37 32q25 -34 60.5 -53t78.5 -19t78.5 19t59.5 53l37 -32q-31 -41 -76.5 -64.5t-98.5 -23.5t-99 23.5z" />
    <glyph glyph-name="Aogonek" unicode="&#x104;" horiz-adv-x="658" 
d="M564 -43q-25 -24 -25 -51q0 -18 12 -28.5t30 -10.5t33 9l20 -45q-27 -17 -68 -17t-69.5 19.5t-28.5 55.5q0 32 28.5 61t74.5 50h-17l-59 148h-332l-59 -148h-95l268 667h103l269 -667h-15q-45 -19 -70 -43zM470 222l-141 359l-142 -359h283z" />
    <glyph glyph-name="aogonek" unicode="&#x105;" horiz-adv-x="527" 
d="M383 -43q-25 -24 -25 -51q0 -18 12 -28.5t30 -10.5q17 0 32 9l20 -45q-27 -17 -68 -17q-40 0 -69 19.5t-29 55.5q0 32 28.5 61t74.5 50h-12v55q-61 -67 -160 -67q-43 0 -81.5 18.5t-63 55t-24.5 86.5q0 51 24.5 87t63 54t81.5 18q103 0 160 -66v87q0 48 -34 75t-88 27
q-44 0 -80 -16.5t-68 -50.5l-35 52q39 41 86.5 60.5t106.5 19.5q83 0 135 -40t52 -123v-332q-44 -19 -69 -43zM377 193q-21 29 -56.5 44.5t-76.5 15.5q-52 0 -85.5 -29.5t-33.5 -76.5q0 -46 33.5 -75.5t85.5 -29.5q41 0 76.5 15.5t56.5 44.5v91z" />
    <glyph glyph-name="Cacute" unicode="&#x106;" horiz-adv-x="676" 
d="M220 31.5q-78 43.5 -123.5 122.5t-45.5 179t45.5 179t123.5 122.5t174 43.5q84 0 147 -35.5t106 -96.5l-70 -39q-29 43 -78 70t-105 27q-72 0 -131 -34.5t-92.5 -96.5t-33.5 -140t33.5 -139.5t92.5 -96.5t131 -35q56 0 105 26.5t78 70.5l71 -39q-97 -132 -254 -132
q-96 0 -174 43.5zM337 723l148 144h78l-169 -144h-57z" />
    <glyph glyph-name="cacute" unicode="&#x107;" horiz-adv-x="495" 
d="M77.5 371q30.5 58 85 91t125.5 33q62 0 104 -22t73 -62l-50 -46q-46 63 -123 63q-76 0 -121.5 -52t-45.5 -134t45.5 -134.5t121.5 -52.5t123 63l50 -46q-31 -40 -73 -62t-104 -22q-71 0 -125.5 33t-85 91t-30.5 130q0 71 30.5 129zM230 556l148 144h78l-169 -144h-57z
" />
    <glyph glyph-name="Ccircumflex" unicode="&#x108;" horiz-adv-x="676" 
d="M220 31.5q-78 43.5 -123.5 122.5t-45.5 179t45.5 179t123.5 122.5t174 43.5q84 0 147 -35.5t106 -96.5l-70 -39q-29 43 -78 70t-105 27q-72 0 -131 -34.5t-92.5 -96.5t-33.5 -140t33.5 -139.5t92.5 -96.5t131 -35q56 0 105 26.5t78 70.5l71 -39q-97 -132 -254 -132
q-96 0 -174 43.5zM392 829l-80 -106h-51l95 144h72l98 -144h-51z" />
    <glyph glyph-name="ccircumflex" unicode="&#x109;" horiz-adv-x="495" 
d="M77.5 371q30.5 58 85 91t125.5 33q62 0 104 -22t73 -62l-50 -46q-46 63 -123 63q-76 0 -121.5 -52t-45.5 -134t45.5 -134.5t121.5 -52.5t123 63l50 -46q-31 -40 -73 -62t-104 -22q-71 0 -125.5 33t-85 91t-30.5 130q0 71 30.5 129zM287 662l-80 -106h-51l95 144h72
l98 -144h-51z" />
    <glyph glyph-name="Cdotaccent" unicode="&#x10a;" horiz-adv-x="676" 
d="M220 31.5q-78 43.5 -123.5 122.5t-45.5 179t45.5 179t123.5 122.5t174 43.5q84 0 147 -35.5t106 -96.5l-70 -39q-29 43 -78 70t-105 27q-72 0 -131 -34.5t-92.5 -96.5t-33.5 -140t33.5 -139.5t92.5 -96.5t131 -35q56 0 105 26.5t78 70.5l71 -39q-97 -132 -254 -132
q-96 0 -174 43.5zM363 802q14 14 33 14t32.5 -13.5t13.5 -33.5t-13.5 -33.5t-32.5 -13.5t-33 14t-14 33t14 33z" />
    <glyph glyph-name="cdotaccent" unicode="&#x10b;" horiz-adv-x="495" 
d="M77.5 371q30.5 58 85 91t125.5 33q62 0 104 -22t73 -62l-50 -46q-46 63 -123 63q-76 0 -121.5 -52t-45.5 -134t45.5 -134.5t121.5 -52.5t123 63l50 -46q-31 -40 -73 -62t-104 -22q-71 0 -125.5 33t-85 91t-30.5 130q0 71 30.5 129zM257 635q14 14 33 14t32.5 -13.5
t13.5 -33.5t-13.5 -33.5t-32.5 -13.5t-33 14t-14 33t14 33z" />
    <glyph glyph-name="Ccaron" unicode="&#x10c;" horiz-adv-x="676" 
d="M220 31.5q-78 43.5 -123.5 122.5t-45.5 179t45.5 179t123.5 122.5t174 43.5q84 0 147 -35.5t106 -96.5l-70 -39q-29 43 -78 70t-105 27q-72 0 -131 -34.5t-92.5 -96.5t-33.5 -140t33.5 -139.5t92.5 -96.5t131 -35q56 0 105 26.5t78 70.5l71 -39q-97 -132 -254 -132
q-96 0 -174 43.5zM261 867h51l83 -106l80 106h51l-95 -144h-72z" />
    <glyph glyph-name="ccaron" unicode="&#x10d;" horiz-adv-x="495" 
d="M77.5 371q30.5 58 85 91t125.5 33q62 0 104 -22t73 -62l-50 -46q-46 63 -123 63q-76 0 -121.5 -52t-45.5 -134t45.5 -134.5t121.5 -52.5t123 63l50 -46q-31 -40 -73 -62t-104 -22q-71 0 -125.5 33t-85 91t-30.5 130q0 71 30.5 129zM156 700h51l83 -106l80 106h51
l-95 -144h-72z" />
    <glyph glyph-name="Dcaron" unicode="&#x10e;" horiz-adv-x="700" 
d="M78 667h228q101 0 179 -43.5t120.5 -120t42.5 -170.5q0 -95 -42.5 -170.5t-120.5 -119t-179 -43.5h-228v667zM306 74q79 0 137 34.5t88.5 93.5t30.5 131q0 73 -30 132t-88 93.5t-138 34.5h-145v-519h145zM219 867h51l83 -106l80 106h51l-95 -144h-72z" />
    <glyph glyph-name="dcaron" unicode="&#x10f;" horiz-adv-x="644" 
d="M425 72q-28 -38 -71 -61t-92 -23q-63 0 -111.5 30.5t-76 88t-27.5 134.5q0 76 27 133.5t76 89t112 31.5q48 0 90.5 -22.5t72.5 -62.5v257h75v-667h-75v72zM425 350q-21 33 -61.5 55.5t-83.5 22.5q-71 0 -113 -52.5t-42 -134.5t42 -134t113 -52q44 0 84 22t61 54v219z
M544 505q23 15 39.5 39.5t18.5 46.5q-2 -2 -11 -2q-18 0 -30 12.5t-12 31.5q0 20 13.5 33.5t32.5 13.5q22 0 37.5 -18t15.5 -49q0 -39 -20 -75t-51 -59z" />
    <glyph glyph-name="Dcroat" unicode="&#x110;" horiz-adv-x="728" 
d="M513 623.5q78 -43.5 120.5 -120t42.5 -170.5q0 -95 -42.5 -170.5t-120.5 -119t-179 -43.5h-228v298h-96v63h96v306h228q101 0 179 -43.5zM471 108.5q58 34.5 88.5 93.5t30.5 131q0 73 -30 132t-88 93.5t-138 34.5h-145v-232h170v-63h-170v-224h145q79 0 137 34.5z" />
    <glyph glyph-name="dcroat" unicode="&#x111;" horiz-adv-x="577" 
d="M568 535h-68v-535h-75v72q-28 -38 -71 -61t-92 -23q-63 0 -111.5 30.5t-76 88t-27.5 134.5q0 76 27 133.5t76 89t112 31.5q48 0 90.5 -22.5t72.5 -62.5v125h-157v48h157v84h75v-84h68v-48zM425 350q-21 33 -61.5 55.5t-83.5 22.5q-71 0 -113 -52.5t-42 -134.5t42 -134
t113 -52q44 0 84 22t61 54v219z" />
    <glyph glyph-name="Emacron" unicode="&#x112;" horiz-adv-x="569" 
d="M78 667h437v-74h-354v-215h347v-74h-347v-230h354v-74h-437v667zM114 787h363v-48h-363v48z" />
    <glyph glyph-name="emacron" unicode="&#x113;" horiz-adv-x="563" 
d="M78 369q31 58 85 92t122 34q71 0 123.5 -34t80.5 -93t28 -132v-19h-391q5 -71 52 -119t122 -48q42 0 81.5 16t67.5 45l36 -49q-74 -74 -192 -74q-71 0 -127 32t-87.5 90t-31.5 132q0 69 31 127zM200 409q-35 -24 -53.5 -61t-20.5 -76h317q-1 39 -18.5 76t-53 61t-87.5 24
q-49 0 -84 -24zM103 620h363v-48h-363v48z" />
    <glyph glyph-name="Ebreve" unicode="&#x114;" horiz-adv-x="569" 
d="M78 667h437v-74h-354v-215h347v-74h-347v-230h354v-74h-437v667zM199 728.5q-46 23.5 -77 64.5l37 32q25 -34 60.5 -53t78.5 -19t78.5 19t59.5 53l37 -32q-31 -41 -76.5 -64.5t-98.5 -23.5t-99 23.5z" />
    <glyph glyph-name="ebreve" unicode="&#x115;" horiz-adv-x="563" 
d="M78 369q31 58 85 92t122 34q71 0 123.5 -34t80.5 -93t28 -132v-19h-391q5 -71 52 -119t122 -48q42 0 81.5 16t67.5 45l36 -49q-74 -74 -192 -74q-71 0 -127 32t-87.5 90t-31.5 132q0 69 31 127zM200 409q-35 -24 -53.5 -61t-20.5 -76h317q-1 39 -18.5 76t-53 61t-87.5 24
q-49 0 -84 -24zM188 561.5q-46 23.5 -77 64.5l37 32q25 -34 60.5 -53t78.5 -19t78.5 19t59.5 53l37 -32q-31 -41 -76.5 -64.5t-98.5 -23.5t-99 23.5z" />
    <glyph glyph-name="Edotaccent" unicode="&#x116;" horiz-adv-x="569" 
d="M78 667h437v-74h-354v-215h347v-74h-347v-230h354v-74h-437v667zM267 802q14 14 33 14t32.5 -13.5t13.5 -33.5t-13.5 -33.5t-32.5 -13.5t-33 14t-14 33t14 33z" />
    <glyph glyph-name="edotaccent" unicode="&#x117;" horiz-adv-x="563" 
d="M78 369q31 58 85 92t122 34q71 0 123.5 -34t80.5 -93t28 -132v-19h-391q5 -71 52 -119t122 -48q42 0 81.5 16t67.5 45l36 -49q-74 -74 -192 -74q-71 0 -127 32t-87.5 90t-31.5 132q0 69 31 127zM200 409q-35 -24 -53.5 -61t-20.5 -76h317q-1 39 -18.5 76t-53 61t-87.5 24
q-49 0 -84 -24zM253 635q14 14 33 14t32.5 -13.5t13.5 -33.5t-13.5 -33.5t-32.5 -13.5t-33 14t-14 33t14 33z" />
    <glyph glyph-name="Eogonek" unicode="&#x118;" horiz-adv-x="569" 
d="M161 593v-215h347v-74h-347v-230h354v-74q-44 -19 -69 -43t-25 -51q0 -18 12 -28.5t30 -10.5q16 0 33 9l19 -45q-26 -17 -68 -17q-40 0 -69 19.5t-29 55.5q0 32 28.5 61t75.5 50h-375v667h437v-74h-354z" />
    <glyph glyph-name="eogonek" unicode="&#x119;" horiz-adv-x="563" 
d="M166 20q-56 32 -87.5 90t-31.5 132q0 69 31 127t85 92t122 34q71 0 123.5 -34t80.5 -93t28 -132v-19h-391q5 -71 52 -119t122 -48q42 0 81.5 16t67.5 45l36 -49q-55 -46 -83 -83.5t-28 -67.5q0 -21 12 -32.5t31 -11.5q18 0 33 9l20 -45q-27 -17 -68 -17q-40 0 -69 19.5
t-29 55.5q0 29 21 58t54 53q-39 -12 -86 -12q-71 0 -127 32zM200 409q-35 -24 -53.5 -61t-20.5 -76h317q-1 39 -18.5 76t-53 61t-87.5 24q-49 0 -84 -24z" />
    <glyph glyph-name="Ecaron" unicode="&#x11a;" horiz-adv-x="569" 
d="M78 667h437v-74h-354v-215h347v-74h-347v-230h354v-74h-437v667zM165 867h51l83 -106l80 106h51l-95 -144h-72z" />
    <glyph glyph-name="ecaron" unicode="&#x11b;" horiz-adv-x="563" 
d="M78 369q31 58 85 92t122 34q71 0 123.5 -34t80.5 -93t28 -132v-19h-391q5 -71 52 -119t122 -48q42 0 81.5 16t67.5 45l36 -49q-74 -74 -192 -74q-71 0 -127 32t-87.5 90t-31.5 132q0 69 31 127zM200 409q-35 -24 -53.5 -61t-20.5 -76h317q-1 39 -18.5 76t-53 61t-87.5 24
q-49 0 -84 -24zM153 700h51l83 -106l80 106h51l-95 -144h-72z" />
    <glyph glyph-name="Gcircumflex" unicode="&#x11c;" horiz-adv-x="713" 
d="M96.5 512.5q45.5 78.5 124 122t173.5 43.5q158 0 259 -125l-66 -41q-32 42 -83.5 67t-109.5 25q-72 0 -131 -34.5t-92.5 -96.5t-33.5 -140t33.5 -140t92.5 -97t131 -35q55 0 102.5 21.5t76.5 50.5v136h-229v74h312v-241q-48 -54 -115.5 -84.5t-146.5 -30.5
q-95 0 -173.5 43.5t-124 122.5t-45.5 180t45.5 179.5zM397 829l-80 -106h-51l95 144h72l98 -144h-51z" />
    <glyph glyph-name="gcircumflex" unicode="&#x11d;" horiz-adv-x="574" 
d="M112 -68q29 -35 66.5 -50.5t90.5 -15.5q67 0 111 35.5t44 109.5v69q-27 -38 -70 -62t-92 -24q-63 0 -111.5 30t-76 86.5t-27.5 133.5q0 76 27 133t76 87.5t112 30.5q48 0 90 -22.5t72 -62.5v73h75v-469q0 -111 -65 -160.5t-165 -49.5q-64 0 -109 15.5t-86 56.5zM424 350
q-20 33 -60 55.5t-84 22.5q-72 0 -113.5 -51t-41.5 -133q0 -81 42 -132.5t113 -51.5q43 0 83.5 23t60.5 56v211zM289 662l-80 -106h-51l95 144h72l98 -144h-51z" />
    <glyph glyph-name="Gbreve" unicode="&#x11e;" horiz-adv-x="713" 
d="M96.5 512.5q45.5 78.5 124 122t173.5 43.5q158 0 259 -125l-66 -41q-32 42 -83.5 67t-109.5 25q-72 0 -131 -34.5t-92.5 -96.5t-33.5 -140t33.5 -140t92.5 -97t131 -35q55 0 102.5 21.5t76.5 50.5v136h-229v74h312v-241q-48 -54 -115.5 -84.5t-146.5 -30.5
q-95 0 -173.5 43.5t-124 122.5t-45.5 180t45.5 179.5zM298 728.5q-46 23.5 -77 64.5l37 32q25 -34 60.5 -53t78.5 -19t78.5 19t59.5 53l37 -32q-31 -41 -76.5 -64.5t-98.5 -23.5t-99 23.5z" />
    <glyph glyph-name="gbreve" unicode="&#x11f;" horiz-adv-x="574" 
d="M112 -68q29 -35 66.5 -50.5t90.5 -15.5q67 0 111 35.5t44 109.5v69q-27 -38 -70 -62t-92 -24q-63 0 -111.5 30t-76 86.5t-27.5 133.5q0 76 27 133t76 87.5t112 30.5q48 0 90 -22.5t72 -62.5v73h75v-469q0 -111 -65 -160.5t-165 -49.5q-64 0 -109 15.5t-86 56.5zM424 350
q-20 33 -60 55.5t-84 22.5q-72 0 -113.5 -51t-41.5 -133q0 -81 42 -132.5t113 -51.5q43 0 83.5 23t60.5 56v211zM191 561.5q-46 23.5 -77 64.5l37 32q25 -34 60.5 -53t78.5 -19t78.5 19t59.5 53l37 -32q-31 -41 -76.5 -64.5t-98.5 -23.5t-99 23.5z" />
    <glyph glyph-name="Gdotaccent" unicode="&#x120;" horiz-adv-x="713" 
d="M96.5 512.5q45.5 78.5 124 122t173.5 43.5q158 0 259 -125l-66 -41q-32 42 -83.5 67t-109.5 25q-72 0 -131 -34.5t-92.5 -96.5t-33.5 -140t33.5 -140t92.5 -97t131 -35q55 0 102.5 21.5t76.5 50.5v136h-229v74h312v-241q-48 -54 -115.5 -84.5t-146.5 -30.5
q-95 0 -173.5 43.5t-124 122.5t-45.5 180t45.5 179.5zM363 802q14 14 33 14t32.5 -13.5t13.5 -33.5t-13.5 -33.5t-32.5 -13.5t-33 14t-14 33t14 33z" />
    <glyph glyph-name="gdotaccent" unicode="&#x121;" horiz-adv-x="574" 
d="M112 -68q29 -35 66.5 -50.5t90.5 -15.5q67 0 111 35.5t44 109.5v69q-27 -38 -70 -62t-92 -24q-63 0 -111.5 30t-76 86.5t-27.5 133.5q0 76 27 133t76 87.5t112 30.5q48 0 90 -22.5t72 -62.5v73h75v-469q0 -111 -65 -160.5t-165 -49.5q-64 0 -109 15.5t-86 56.5zM424 350
q-20 33 -60 55.5t-84 22.5q-72 0 -113.5 -51t-41.5 -133q0 -81 42 -132.5t113 -51.5q43 0 83.5 23t60.5 56v211zM256 635q14 14 33 14t32.5 -13.5t13.5 -33.5t-13.5 -33.5t-32.5 -13.5t-33 14t-14 33t14 33z" />
    <glyph glyph-name="uni0122" unicode="&#x122;" horiz-adv-x="713" 
d="M96.5 512.5q45.5 78.5 124 122t173.5 43.5q158 0 259 -125l-66 -41q-32 42 -83.5 67t-109.5 25q-72 0 -131 -34.5t-92.5 -96.5t-33.5 -140t33.5 -140t92.5 -97t131 -35q55 0 102.5 21.5t76.5 50.5v136h-229v74h312v-241q-48 -54 -115.5 -84.5t-146.5 -30.5
q-95 0 -173.5 43.5t-124 122.5t-45.5 180t45.5 179.5zM344 -246q23 15 39.5 39.5t18.5 46.5q-2 -2 -11 -2q-18 0 -30 12.5t-12 31.5q0 20 13.5 33.5t32.5 13.5q22 0 37.5 -18t15.5 -49q0 -39 -20 -75t-51 -59z" />
    <glyph glyph-name="uni0123" unicode="&#x123;" horiz-adv-x="574" 
d="M340 725q-22 -15 -39 -38.5t-18 -45.5l1.5 0.5t3.5 0.5q17 0 31.5 -13.5t14.5 -31.5t-14 -32t-34 -14q-19 0 -33.5 15.5t-14.5 44.5q0 43 19.5 81.5t49.5 59.5zM112 -68q29 -35 66.5 -50.5t90.5 -15.5q67 0 111 35.5t44 109.5v69q-27 -38 -70 -62t-92 -24
q-63 0 -111.5 30t-76 86.5t-27.5 133.5q0 76 27 133t76 87.5t112 30.5q48 0 90 -22.5t72 -62.5v73h75v-469q0 -111 -65 -160.5t-165 -49.5q-64 0 -109 15.5t-86 56.5zM424 350q-20 33 -60 55.5t-84 22.5q-72 0 -113.5 -51t-41.5 -133q0 -81 42 -132.5t113 -51.5
q43 0 83.5 23t60.5 56v211z" />
    <glyph glyph-name="Hcircumflex" unicode="&#x124;" horiz-adv-x="712" 
d="M551 306h-390v-306h-83v667h83v-287h390v287h83v-667h-83v306zM352 829l-80 -106h-51l95 144h72l98 -144h-51z" />
    <glyph glyph-name="hcircumflex" unicode="&#x125;" horiz-adv-x="552" 
d="M402 318q0 60 -28 85t-81 25q-41 0 -80.5 -22t-62.5 -53v-353h-75v667h75v-254q28 33 75 57.5t98 24.5q154 0 154 -154v-341h-75v318zM276 829l-80 -106h-51l95 144h72l98 -144h-51z" />
    <glyph glyph-name="Hbar" unicode="&#x126;" horiz-adv-x="731" 
d="M723 498h-79v-498h-83v306h-390v-306h-83v498h-78v48h78v121h83v-121h390v121h83v-121h79v-48zM561 498h-390v-118h390v118z" />
    <glyph glyph-name="hbar" unicode="&#x127;" horiz-adv-x="554" 
d="M479 341v-341h-75v318q0 60 -28 85t-81 25q-41 0 -80.5 -22t-62.5 -53v-353h-75v535h-68v48h68v84h75v-84h157v-48h-157v-122q28 33 75 57.5t98 24.5q154 0 154 -154z" />
    <glyph glyph-name="Itilde" unicode="&#x128;" horiz-adv-x="239" 
d="M78 667h83v-667h-83v667zM80.5 803.5q-9.5 9.5 -24.5 9.5q-21 0 -34.5 -21.5t-13.5 -64.5h-45q0 60 25.5 97t71.5 37q26 0 41.5 -13.5t33.5 -39.5q15 -21 24 -30t24 -9q21 0 34.5 21.5t13.5 64.5h45q0 -60 -25.5 -97t-71.5 -37q-27 0 -42.5 13.5t-33.5 39.5
q-13 20 -22.5 29.5z" />
    <glyph glyph-name="itilde" unicode="&#x129;" horiz-adv-x="225" 
d="M75 483h75v-483h-75v483zM73.5 636.5q-9.5 9.5 -24.5 9.5q-21 0 -34.5 -21.5t-13.5 -64.5h-45q0 60 25.5 97t71.5 37q26 0 41.5 -13.5t33.5 -39.5q15 -21 24 -30t24 -9q21 0 34.5 21.5t13.5 64.5h45q0 -60 -25.5 -97t-71.5 -37q-27 0 -42.5 13.5t-33.5 39.5
q-13 20 -22.5 29.5z" />
    <glyph glyph-name="Imacron" unicode="&#x12a;" horiz-adv-x="239" 
d="M78 667h83v-667h-83v667zM-61 787h363v-48h-363v48z" />
    <glyph glyph-name="imacron" unicode="&#x12b;" horiz-adv-x="225" 
d="M75 483h75v-483h-75v483zM-69 620h363v-48h-363v48z" />
    <glyph glyph-name="Ibreve" unicode="&#x12c;" horiz-adv-x="239" 
d="M78 667h83v-667h-83v667zM22 728.5q-46 23.5 -77 64.5l37 32q25 -34 60.5 -53t78.5 -19t78.5 19t59.5 53l37 -32q-31 -41 -76.5 -64.5t-98.5 -23.5t-99 23.5z" />
    <glyph glyph-name="ibreve" unicode="&#x12d;" horiz-adv-x="225" 
d="M75 483h75v-483h-75v483zM14 561.5q-46 23.5 -77 64.5l37 32q25 -34 60.5 -53t78.5 -19t78.5 19t59.5 53l37 -32q-31 -41 -76.5 -64.5t-98.5 -23.5t-99 23.5z" />
    <glyph glyph-name="Iogonek" unicode="&#x12e;" horiz-adv-x="239" 
d="M141 -124l20 -45q-27 -17 -68 -17q-40 0 -69 19.5t-29 55.5q0 32 28.5 61t74.5 50h-20v667h83v-667q-44 -19 -69 -43t-25 -51q0 -18 11.5 -28.5t29.5 -10.5t33 9z" />
    <glyph glyph-name="iogonek" unicode="&#x12f;" horiz-adv-x="225" 
d="M77 566.5q-15 14.5 -15 35.5t15 36t35 15q21 0 36 -15t15 -36t-15 -35.5t-36 -14.5q-20 0 -35 14.5zM75 483h75v-483h-75v483zM81 -186q-40 0 -69 19.5t-29 55.5q0 35 33 65.5t85 51.5l48 -6q-44 -19 -69 -43t-25 -51q0 -18 12 -28.5t30 -10.5q16 0 33 9l19 -45
q-26 -17 -68 -17z" />
    <glyph glyph-name="Idotaccent" unicode="&#x130;" horiz-adv-x="239" 
d="M78 667h83v-667h-83v667zM87 802q14 14 33 14t32.5 -13.5t13.5 -33.5t-13.5 -33.5t-32.5 -13.5t-33 14t-14 33t14 33z" />
    <glyph glyph-name="dotlessi" unicode="&#x131;" horiz-adv-x="225" 
d="M75 483h75v-483h-75v483z" />
    <glyph glyph-name="IJ" unicode="&#x132;" horiz-adv-x="713" 
d="M78 667h83v-667h-83v667zM293 128q55 -66 126 -66q61 0 97.5 38.5t36.5 101.5v465h83v-466q0 -104 -59 -158.5t-153 -54.5q-54 0 -97 18.5t-77 58.5z" />
    <glyph glyph-name="ij" unicode="&#x133;" horiz-adv-x="451" 
d="M77 566.5q-15 14.5 -15 35.5t15 36t35 15q21 0 36 -15t15 -36t-15 -35.5t-36 -14.5q-20 0 -35 14.5zM75 483h75v-483h-75v483zM302 566.5q-15 14.5 -15 35.5t15 36t35 15q21 0 36 -15t15 -36t-15 -35.5t-36 -14.5q-20 0 -35 14.5zM375 -47q0 -71 -37 -110t-105 -39
q-32 0 -54 7l10 63q12 -5 36 -5q75 0 75 84v530h75v-530z" />
    <glyph glyph-name="Jcircumflex" unicode="&#x134;" horiz-adv-x="475" 
d="M54 128q55 -66 126 -66q61 0 97.5 38.5t36.5 101.5v465h83v-466q0 -104 -59 -158.5t-153 -54.5q-54 0 -97 18.5t-77 58.5zM354 829l-80 -106h-51l95 144h72l98 -144h-51z" />
    <glyph glyph-name="jcircumflex" unicode="&#x135;" horiz-adv-x="225" 
d="M113 662l-80 -106h-51l95 144h72l98 -144h-51zM-36 -126q12 -5 36 -5q75 0 75 84v530h75v-530q0 -71 -37 -110t-105 -39q-32 0 -54 7z" />
    <glyph glyph-name="uni0136" unicode="&#x136;" horiz-adv-x="606" 
d="M228 300l-67 -76v-224h-83v667h83v-345l295 345h104l-278 -317l302 -350h-103zM255 -246q23 15 39.5 39.5t18.5 46.5q-2 -2 -11 -2q-18 0 -30 12.5t-12 31.5q0 20 13.5 33.5t32.5 13.5q22 0 37.5 -18t15.5 -49q0 -39 -20 -75t-51 -59z" />
    <glyph glyph-name="uni0137" unicode="&#x137;" horiz-adv-x="514" 
d="M230 217l-80 -79v-138h-75v667h75v-441l254 257h95l-214 -219l215 -264h-96zM209 -246q23 15 39.5 39.5t18.5 46.5q-2 -2 -11 -2q-18 0 -30 12.5t-12 31.5q0 20 13.5 33.5t32.5 13.5q22 0 37.5 -18t15.5 -49q0 -39 -20 -75t-51 -59z" />
    <glyph glyph-name="kgreenlandic" unicode="&#x138;" horiz-adv-x="514" 
d="M230 217l-80 -79v-138h-75v483h75v-257l254 257h95l-214 -219l215 -264h-96z" />
    <glyph glyph-name="Lacute" unicode="&#x139;" horiz-adv-x="510" 
d="M78 667h83v-593h310v-74h-393v667zM217 723l148 144h78l-169 -144h-57z" />
    <glyph glyph-name="lacute" unicode="&#x13a;" horiz-adv-x="225" 
d="M75 667h75v-667h-75v667zM56 723l148 144h78l-169 -144h-57z" />
    <glyph glyph-name="uni013B" unicode="&#x13b;" horiz-adv-x="510" 
d="M78 667h83v-593h310v-74h-393v667zM214 -246q23 15 39.5 39.5t18.5 46.5q-2 -2 -11 -2q-18 0 -30 12.5t-12 31.5q0 20 13.5 33.5t32.5 13.5q22 0 37.5 -18t15.5 -49q0 -39 -20 -75t-51 -59z" />
    <glyph glyph-name="uni013C" unicode="&#x13c;" horiz-adv-x="225" 
d="M75 667h75v-667h-75v667zM65 -246q23 15 39.5 39.5t18.5 46.5q-2 -2 -11 -2q-18 0 -30 12.5t-12 31.5q0 20 13.5 33.5t32.5 13.5q22 0 37.5 -18t15.5 -49q0 -39 -20 -75t-51 -59z" />
    <glyph glyph-name="Lcaron" unicode="&#x13d;" horiz-adv-x="510" 
d="M78 667h83v-593h310v-74h-393v667zM250 505q23 15 39.5 39.5t18.5 46.5q-2 -2 -11 -2q-18 0 -30 12.5t-12 31.5q0 20 13.5 33.5t32.5 13.5q22 0 37.5 -18t15.5 -49q0 -39 -20 -75t-51 -59z" />
    <glyph glyph-name="lcaron" unicode="&#x13e;" horiz-adv-x="291" 
d="M75 667h75v-667h-75v667zM207 505q23 15 39.5 39.5t18.5 46.5q-2 -2 -11 -2q-18 0 -30 12.5t-12 31.5q0 20 13.5 33.5t32.5 13.5q22 0 37.5 -18t15.5 -49q0 -39 -20 -75t-51 -59z" />
    <glyph glyph-name="Ldot" unicode="&#x13f;" horiz-adv-x="510" 
d="M78 667h83v-593h310v-74h-393v667zM330.5 303q-16.5 16 -16.5 38q0 23 16.5 39t38.5 16q23 0 39 -16t16 -39q0 -22 -16.5 -38t-38.5 -16t-38.5 16z" />
    <glyph glyph-name="ldot" unicode="&#x140;" horiz-adv-x="307" 
d="M75 667h75v-667h-75v667zM227.5 206q-16.5 16 -16.5 38q0 23 16.5 39t38.5 16q23 0 39 -16t16 -39q0 -22 -16.5 -38t-38.5 -16t-38.5 16z" />
    <glyph glyph-name="Lslash" unicode="&#x141;" horiz-adv-x="529" 
d="M490 74v-74h-393v271l-87 -50v72l87 50v324h83v-276l97 56v-72l-97 -56v-245h310z" />
    <glyph glyph-name="lslash" unicode="&#x142;" horiz-adv-x="287" 
d="M276 380l-95 -54v-326h-75v283l-96 -55v60l96 55v324h75v-281l95 54v-60z" />
    <glyph glyph-name="Nacute" unicode="&#x143;" horiz-adv-x="708" 
d="M161 532v-532h-83v667h85l384 -521v521h83v-667h-80zM305 723l148 144h78l-169 -144h-57z" />
    <glyph glyph-name="nacute" unicode="&#x144;" horiz-adv-x="551" 
d="M401 316q0 61 -28 86.5t-80 25.5q-42 0 -81.5 -22t-61.5 -53v-353h-75v483h75v-70q28 33 75 57.5t97 24.5q154 0 154 -156v-339h-75v316zM218 556l148 144h78l-169 -144h-57z" />
    <glyph glyph-name="uni0145" unicode="&#x145;" horiz-adv-x="708" 
d="M161 532v-532h-83v667h85l384 -521v521h83v-667h-80zM306 -246q23 15 39.5 39.5t18.5 46.5q-2 -2 -11 -2q-18 0 -30 12.5t-12 31.5q0 20 13.5 33.5t32.5 13.5q22 0 37.5 -18t15.5 -49q0 -39 -20 -75t-51 -59z" />
    <glyph glyph-name="uni0146" unicode="&#x146;" horiz-adv-x="551" 
d="M401 316q0 61 -28 86.5t-80 25.5q-42 0 -81.5 -22t-61.5 -53v-353h-75v483h75v-70q28 33 75 57.5t97 24.5q154 0 154 -156v-339h-75v316zM225 -246q23 15 39.5 39.5t18.5 46.5q-2 -2 -11 -2q-18 0 -30 12.5t-12 31.5q0 20 13.5 33.5t32.5 13.5q22 0 37.5 -18t15.5 -49
q0 -39 -20 -75t-51 -59z" />
    <glyph glyph-name="Ncaron" unicode="&#x147;" horiz-adv-x="708" 
d="M161 532v-532h-83v667h85l384 -521v521h83v-667h-80zM220 867h51l83 -106l80 106h51l-95 -144h-72z" />
    <glyph glyph-name="ncaron" unicode="&#x148;" horiz-adv-x="551" 
d="M401 316q0 61 -28 86.5t-80 25.5q-42 0 -81.5 -22t-61.5 -53v-353h-75v483h75v-70q28 33 75 57.5t97 24.5q154 0 154 -156v-339h-75v316zM144 700h51l83 -106l80 106h51l-95 -144h-72z" />
    <glyph glyph-name="napostrophe" unicode="&#x149;" horiz-adv-x="551" 
d="M401 316q0 61 -28 86.5t-80 25.5q-42 0 -81.5 -22t-61.5 -53v-353h-75v483h75v-70q28 33 75 57.5t97 24.5q154 0 154 -156v-339h-75v316zM56 568q23 15 39.5 39.5t18.5 46.5q-2 -2 -11 -2q-18 0 -30 12.5t-12 31.5q0 20 13.5 33.5t32.5 13.5q22 0 37.5 -18t15.5 -49
q0 -39 -20 -75t-51 -59z" />
    <glyph glyph-name="Eng" unicode="&#x14a;" horiz-adv-x="708" 
d="M630 667v-652q0 -104 -59 -157.5t-153 -53.5q-108 0 -174 77l44 63q53 -66 125 -66q58 0 94 34.5t40 91.5l-386 528v-532h-83v667h85l384 -521v521h83z" />
    <glyph glyph-name="eng" unicode="&#x14b;" horiz-adv-x="551" 
d="M439 -157q-37 -39 -105 -39q-32 0 -54 7l10 63q13 -5 36 -5q75 0 75 84v363q0 61 -28 86.5t-80 25.5q-42 0 -81.5 -22t-61.5 -53v-353h-75v483h75v-70q28 33 75 57.5t97 24.5q154 0 154 -156v-386q0 -71 -37 -110z" />
    <glyph glyph-name="Omacron" unicode="&#x14c;" horiz-adv-x="765" 
d="M92.5 509.5q41.5 78.5 117 123.5t172.5 45t172 -45t117 -123.5t42 -176.5t-42 -176.5t-117 -123.5t-172 -45t-172.5 45t-117 123.5t-41.5 176.5t41.5 176.5zM596.5 472.5q-30.5 61.5 -86 96.5t-128.5 35q-74 0 -129.5 -35t-85.5 -96.5t-30 -139.5q0 -77 30 -139t86 -97
t129 -35t128.5 35t86 97t30.5 139q0 78 -30.5 139.5zM200 787h363v-48h-363v48z" />
    <glyph glyph-name="omacron" unicode="&#x14d;" 
d="M160 22q-54 34 -83.5 92t-29.5 128t29.5 128t83.5 91.5t126 33.5t126 -33.5t83.5 -91.5t29.5 -128t-29.5 -128t-83.5 -92t-126 -34t-126 34zM372 80.5q36 25.5 55 68.5t19 93t-19 92.5t-55 68t-86 25.5t-86.5 -25.5t-55.5 -68t-19 -92.5t19 -93t55.5 -68.5t86.5 -25.5
t86 25.5zM104 620h363v-48h-363v48z" />
    <glyph glyph-name="Obreve" unicode="&#x14e;" horiz-adv-x="765" 
d="M92.5 509.5q41.5 78.5 117 123.5t172.5 45t172 -45t117 -123.5t42 -176.5t-42 -176.5t-117 -123.5t-172 -45t-172.5 45t-117 123.5t-41.5 176.5t41.5 176.5zM596.5 472.5q-30.5 61.5 -86 96.5t-128.5 35q-74 0 -129.5 -35t-85.5 -96.5t-30 -139.5q0 -77 30 -139t86 -97
t129 -35t128.5 35t86 97t30.5 139q0 78 -30.5 139.5zM283 728.5q-46 23.5 -77 64.5l37 32q25 -34 60.5 -53t78.5 -19t78.5 19t59.5 53l37 -32q-31 -41 -76.5 -64.5t-98.5 -23.5t-99 23.5z" />
    <glyph glyph-name="obreve" unicode="&#x14f;" 
d="M160 22q-54 34 -83.5 92t-29.5 128t29.5 128t83.5 91.5t126 33.5t126 -33.5t83.5 -91.5t29.5 -128t-29.5 -128t-83.5 -92t-126 -34t-126 34zM372 80.5q36 25.5 55 68.5t19 93t-19 92.5t-55 68t-86 25.5t-86.5 -25.5t-55.5 -68t-19 -92.5t19 -93t55.5 -68.5t86.5 -25.5
t86 25.5zM188 561.5q-46 23.5 -77 64.5l37 32q25 -34 60.5 -53t78.5 -19t78.5 19t59.5 53l37 -32q-31 -41 -76.5 -64.5t-98.5 -23.5t-99 23.5z" />
    <glyph glyph-name="Ohungarumlaut" unicode="&#x150;" horiz-adv-x="765" 
d="M92.5 509.5q41.5 78.5 117 123.5t172.5 45t172 -45t117 -123.5t42 -176.5t-42 -176.5t-117 -123.5t-172 -45t-172.5 45t-117 123.5t-41.5 176.5t41.5 176.5zM596.5 472.5q-30.5 61.5 -86 96.5t-128.5 35q-74 0 -129.5 -35t-85.5 -96.5t-30 -139.5q0 -77 30 -139t86 -97
t129 -35t128.5 35t86 97t30.5 139q0 78 -30.5 139.5zM272 723l94 144h69l-115 -144h-48zM414 723l94 144h69l-115 -144h-48z" />
    <glyph glyph-name="ohungarumlaut" unicode="&#x151;" 
d="M160 22q-54 34 -83.5 92t-29.5 128t29.5 128t83.5 91.5t126 33.5t126 -33.5t83.5 -91.5t29.5 -128t-29.5 -128t-83.5 -92t-126 -34t-126 34zM372 80.5q36 25.5 55 68.5t19 93t-19 92.5t-55 68t-86 25.5t-86.5 -25.5t-55.5 -68t-19 -92.5t19 -93t55.5 -68.5t86.5 -25.5
t86 25.5zM176 556l94 144h69l-115 -144h-48zM318 556l94 144h69l-115 -144h-48z" />
    <glyph glyph-name="OE" unicode="&#x152;" horiz-adv-x="1105" 
d="M613 120q-36 -63 -100.5 -97.5t-137.5 -34.5q-95 0 -169 45t-114.5 123.5t-40.5 176.5t40.5 176.5t114.5 123t169 44.5q73 0 137.5 -34t100.5 -97v121h438v-74h-355v-215h348v-74h-348v-230h355v-74h-438v120zM523.5 562q-60.5 41 -139.5 41q-75 0 -131 -34.5t-86 -96
t-30 -139.5t30 -139.5t86 -96.5t131 -35q79 0 139.5 41.5t89.5 119.5v220q-29 78 -89.5 119z" />
    <glyph glyph-name="oe" unicode="&#x153;" horiz-adv-x="962" 
d="M577.5 98q46.5 -48 121.5 -48q42 0 81.5 16t68.5 45l36 -49q-76 -74 -192 -74q-83 0 -133 41.5t-75 96.5q-25 -55 -72 -96.5t-127 -41.5q-72 0 -126 34t-83.5 92t-29.5 128t29.5 128t83.5 91.5t126 33.5q80 0 128.5 -42.5t71.5 -95.5q22 52 71.5 95t126.5 43
q71 0 123.5 -34t80.5 -93t28 -132v-19h-390q5 -71 51.5 -119zM824 348q-18 37 -53.5 61t-87.5 24q-49 0 -84 -24t-53.5 -61t-20.5 -76h318q-1 39 -19 76zM200.5 403q-36.5 -25 -56 -67.5t-19.5 -93.5q0 -52 19.5 -94.5t56 -68t85.5 -25.5t85.5 25.5t55.5 68t19 94.5
q0 51 -19 93.5t-55.5 67.5t-85.5 25t-85.5 -25z" />
    <glyph glyph-name="Racute" unicode="&#x154;" horiz-adv-x="608" 
d="M294 265h-133v-265h-83v667h268q61 0 108.5 -24.5t74 -70.5t26.5 -106q0 -58 -23.5 -100.5t-63 -66t-86.5 -27.5l180 -272h-98zM432 557.5q-37 35.5 -96 35.5h-175v-255h175q59 0 96 36t37 92t-37 91.5zM254 723l148 144h78l-169 -144h-57z" />
    <glyph glyph-name="racute" unicode="&#x155;" horiz-adv-x="330" 
d="M75 483h75v-78q31 40 72.5 64t88.5 24v-77q-14 3 -30 3q-34 0 -74 -24t-57 -53v-342h-75v483zM136 556l148 144h78l-169 -144h-57z" />
    <glyph glyph-name="uni0156" unicode="&#x156;" horiz-adv-x="608" 
d="M294 265h-133v-265h-83v667h268q61 0 108.5 -24.5t74 -70.5t26.5 -106q0 -58 -23.5 -100.5t-63 -66t-86.5 -27.5l180 -272h-98zM432 557.5q-37 35.5 -96 35.5h-175v-255h175q59 0 96 36t37 92t-37 91.5zM258 -246q23 15 39.5 39.5t18.5 46.5q-2 -2 -11 -2q-18 0 -30 12.5
t-12 31.5q0 20 13.5 33.5t32.5 13.5q22 0 37.5 -18t15.5 -49q0 -39 -20 -75t-51 -59z" />
    <glyph glyph-name="uni0157" unicode="&#x157;" horiz-adv-x="330" 
d="M75 483h75v-78q31 40 72.5 64t88.5 24v-77q-14 3 -30 3q-34 0 -74 -24t-57 -53v-342h-75v483zM117 -246q23 15 39.5 39.5t18.5 46.5q-2 -2 -11 -2q-18 0 -30 12.5t-12 31.5q0 20 13.5 33.5t32.5 13.5q22 0 37.5 -18t15.5 -49q0 -39 -20 -75t-51 -59z" />
    <glyph glyph-name="Rcaron" unicode="&#x158;" horiz-adv-x="608" 
d="M294 265h-133v-265h-83v667h268q61 0 108.5 -24.5t74 -70.5t26.5 -106q0 -58 -23.5 -100.5t-63 -66t-86.5 -27.5l180 -272h-98zM432 557.5q-37 35.5 -96 35.5h-175v-255h175q59 0 96 36t37 92t-37 91.5zM173 867h51l83 -106l80 106h51l-95 -144h-72z" />
    <glyph glyph-name="rcaron" unicode="&#x159;" horiz-adv-x="330" 
d="M75 483h75v-78q31 40 72.5 64t88.5 24v-77q-14 3 -30 3q-34 0 -74 -24t-57 -53v-342h-75v483zM59 700h51l83 -106l80 106h51l-95 -144h-72z" />
    <glyph glyph-name="Sacute" unicode="&#x15a;" horiz-adv-x="586" 
d="M87 157q37 -41 91 -68t119 -27q81 0 119 34.5t38 80.5q0 37 -22.5 60.5t-55.5 36.5t-91 29q-74 19 -118.5 37t-76 54.5t-31.5 97.5q0 54 30 96t82 65.5t117 23.5q149 0 237 -93l-50 -61q-36 40 -86 60t-107 20q-60 0 -98.5 -29.5t-38.5 -76.5q0 -31 21.5 -51.5t52.5 -32
t88 -26.5q74 -20 120.5 -39.5t79.5 -59t33 -104.5q0 -52 -25 -96.5t-80.5 -72t-140.5 -27.5q-83 0 -147.5 28.5t-108.5 77.5zM234 723l148 144h78l-169 -144h-57z" />
    <glyph glyph-name="sacute" unicode="&#x15b;" horiz-adv-x="465" 
d="M72 118q25 -29 68.5 -49t90.5 -20q54 0 84 23t30 60q0 25 -16.5 40.5t-40.5 23.5t-67 19q-56 13 -90.5 26t-59.5 41t-25 74q0 38 21.5 69.5t62 50.5t96.5 19q109 0 179 -70l-35 -52q-23 27 -61 44t-83 17q-49 0 -78 -21.5t-29 -54.5q0 -31 28.5 -45t89.5 -29
q56 -13 92.5 -27t62.5 -43.5t26 -79.5q0 -64 -50 -105t-140 -41q-123 0 -195 76zM171 556l148 144h78l-169 -144h-57z" />
    <glyph glyph-name="Scircumflex" unicode="&#x15c;" horiz-adv-x="586" 
d="M284 829l-80 -106h-51l95 144h72l98 -144h-51zM87 157q37 -41 91 -68t119 -27q81 0 119 34.5t38 80.5q0 37 -22.5 60.5t-55.5 36.5t-91 29q-74 19 -118.5 37t-76 54.5t-31.5 97.5q0 54 30 96t82 65.5t117 23.5q149 0 237 -93l-50 -61q-36 40 -86 60t-107 20
q-60 0 -98.5 -29.5t-38.5 -76.5q0 -31 21.5 -51.5t52.5 -32t88 -26.5q74 -20 120.5 -39.5t79.5 -59t33 -104.5q0 -52 -25 -96.5t-80.5 -72t-140.5 -27.5q-83 0 -147.5 28.5t-108.5 77.5z" />
    <glyph glyph-name="scircumflex" unicode="&#x15d;" horiz-adv-x="465" 
d="M72 118q25 -29 68.5 -49t90.5 -20q54 0 84 23t30 60q0 25 -16.5 40.5t-40.5 23.5t-67 19q-56 13 -90.5 26t-59.5 41t-25 74q0 38 21.5 69.5t62 50.5t96.5 19q109 0 179 -70l-35 -52q-23 27 -61 44t-83 17q-49 0 -78 -21.5t-29 -54.5q0 -31 28.5 -45t89.5 -29
q56 -13 92.5 -27t62.5 -43.5t26 -79.5q0 -64 -50 -105t-140 -41q-123 0 -195 76zM227 662l-80 -106h-51l95 144h72l98 -144h-51z" />
    <glyph glyph-name="uni015E" unicode="&#x15e;" horiz-adv-x="586" 
d="M516 90.5q-24 -43.5 -76.5 -72t-133.5 -30.5l-17 -43q16 11 36 11q30 0 48.5 -18.5t18.5 -48.5q0 -36 -30 -58t-74 -22q-31 0 -58.5 8.5t-42.5 21.5l19 38q35 -29 80 -29q25 0 43 11.5t18 30.5q0 16 -9.5 25.5t-27.5 9.5q-23 0 -38 -17l-33 19l23 62q-72 5 -128.5 33
t-95.5 72l49 63q37 -41 91 -68t119 -27q81 0 119 34.5t38 80.5q0 37 -22.5 60.5t-55.5 36.5t-91 29q-74 19 -118.5 37t-76 54.5t-31.5 97.5q0 54 30 96t82 65.5t117 23.5q149 0 237 -93l-50 -61q-36 40 -86 60t-107 20q-60 0 -98.5 -29.5t-38.5 -76.5q0 -31 21.5 -51.5
t52.5 -32t88 -26.5q74 -20 120.5 -39.5t79.5 -59t33 -104.5q0 -50 -24 -93.5z" />
    <glyph glyph-name="uni015F" unicode="&#x15f;" horiz-adv-x="465" 
d="M373 32.5q-45 -40.5 -128 -44.5l-17 -43q16 11 37 11q29 0 47.5 -18.5t18.5 -48.5q0 -36 -29.5 -58t-74.5 -22q-31 0 -58 8.5t-43 21.5l19 38q36 -29 80 -29q26 0 44 11.5t18 30.5q0 16 -10 25.5t-28 9.5q-10 0 -20.5 -4.5t-16.5 -12.5l-34 19l23 62q-104 8 -168 75
l39 54q25 -29 68.5 -49t90.5 -20q54 0 84 23t30 60q0 25 -16.5 40.5t-40.5 23.5t-67 19q-56 13 -90.5 26t-59.5 41t-25 74q0 38 21.5 69.5t62 50.5t96.5 19q109 0 179 -70l-35 -52q-23 27 -61 44t-83 17q-49 0 -78 -21.5t-29 -54.5q0 -31 28.5 -45t89.5 -29q56 -13 92.5 -27
t62.5 -43.5t26 -79.5q0 -61 -45 -101.5z" />
    <glyph glyph-name="Scaron" unicode="&#x160;" horiz-adv-x="586" 
d="M153 867h51l83 -106l80 106h51l-95 -144h-72zM87 157q37 -41 91 -68t119 -27q81 0 119 34.5t38 80.5q0 37 -22.5 60.5t-55.5 36.5t-91 29q-74 19 -118.5 37t-76 54.5t-31.5 97.5q0 54 30 96t82 65.5t117 23.5q149 0 237 -93l-50 -61q-36 40 -86 60t-107 20
q-60 0 -98.5 -29.5t-38.5 -76.5q0 -31 21.5 -51.5t52.5 -32t88 -26.5q74 -20 120.5 -39.5t79.5 -59t33 -104.5q0 -52 -25 -96.5t-80.5 -72t-140.5 -27.5q-83 0 -147.5 28.5t-108.5 77.5z" />
    <glyph glyph-name="scaron" unicode="&#x161;" horiz-adv-x="465" 
d="M72 118q25 -29 68.5 -49t90.5 -20q54 0 84 23t30 60q0 25 -16.5 40.5t-40.5 23.5t-67 19q-56 13 -90.5 26t-59.5 41t-25 74q0 38 21.5 69.5t62 50.5t96.5 19q109 0 179 -70l-35 -52q-23 27 -61 44t-83 17q-49 0 -78 -21.5t-29 -54.5q0 -31 28.5 -45t89.5 -29
q56 -13 92.5 -27t62.5 -43.5t26 -79.5q0 -64 -50 -105t-140 -41q-123 0 -195 76zM96 700h51l83 -106l80 106h51l-95 -144h-72z" />
    <glyph glyph-name="uni0162" unicode="&#x162;" horiz-adv-x="570" 
d="M243 593h-211v74h506v-74h-212v-593h-83v593zM237 -246q23 15 39.5 39.5t18.5 46.5q-2 -2 -11 -2q-18 0 -30 12.5t-12 31.5q0 20 13.5 33.5t32.5 13.5q22 0 37.5 -18t15.5 -49q0 -39 -20 -75t-51 -59z" />
    <glyph glyph-name="uni0163" unicode="&#x163;" horiz-adv-x="294" 
d="M117 17q-27 29 -27 84v316h-80v66h80v132h75v-132h98v-66h-98v-300q0 -28 12.5 -45t36.5 -17q15 0 29 5.5t22 14.5l22 -56q-33 -31 -90 -31q-53 0 -80 29zM99 -246q23 15 39.5 39.5t18.5 46.5q-2 -2 -11 -2q-18 0 -30 12.5t-12 31.5q0 20 13.5 33.5t32.5 13.5
q22 0 37.5 -18t15.5 -49q0 -39 -20 -75t-51 -59z" />
    <glyph glyph-name="Tcaron" unicode="&#x164;" horiz-adv-x="570" 
d="M243 593h-211v74h506v-74h-212v-593h-83v593zM152 867h51l83 -106l80 106h51l-95 -144h-72z" />
    <glyph glyph-name="tcaron" unicode="&#x165;" horiz-adv-x="313" 
d="M117 17q-27 29 -27 84v316h-80v66h80v132h75v-132h98v-66h-98v-300q0 -28 12.5 -45t36.5 -17q15 0 29 5.5t22 14.5l22 -56q-33 -31 -90 -31q-53 0 -80 29zM221 568q23 15 39.5 39.5t18.5 46.5q-2 -2 -11 -2q-18 0 -30 12.5t-12 31.5q0 20 13.5 33.5t32.5 13.5
q22 0 37.5 -18t15.5 -49q0 -39 -20 -75t-51 -59z" />
    <glyph glyph-name="Tbar" unicode="&#x166;" horiz-adv-x="570" 
d="M326 593v-251h151v-48h-151v-294h-83v294h-150v48h150v251h-211v74h506v-74h-212z" />
    <glyph glyph-name="tbar" unicode="&#x167;" horiz-adv-x="294" 
d="M287 19q-33 -31 -90 -31q-53 0 -80 29t-27 84v125h-80v48h80v143h-80v66h80v132h75v-132h98v-66h-98v-143h70v-48h-70v-109q0 -28 12.5 -45t36.5 -17q15 0 29 5.5t22 14.5z" />
    <glyph glyph-name="Utilde" unicode="&#x168;" horiz-adv-x="700" 
d="M78 667h83v-406q0 -93 49 -146t140 -53t140 53t49 146v406h83v-407q0 -127 -69.5 -199.5t-202.5 -72.5t-202.5 72.5t-69.5 198.5v408zM313.5 803.5q-9.5 9.5 -24.5 9.5q-21 0 -34.5 -21.5t-13.5 -64.5h-45q0 60 25.5 97t71.5 37q26 0 41.5 -13.5t33.5 -39.5
q15 -21 24 -30t24 -9q21 0 34.5 21.5t13.5 64.5h45q0 -60 -25.5 -97t-71.5 -37q-27 0 -42.5 13.5t-33.5 39.5q-13 20 -22.5 29.5z" />
    <glyph glyph-name="utilde" unicode="&#x169;" horiz-adv-x="551" 
d="M401 68q-30 -34 -75.5 -57t-96.5 -23q-154 0 -154 154v341h75v-318q0 -60 27.5 -85t80.5 -25q42 0 81.5 21t61.5 52v355h75v-483h-75v68zM236.5 636.5q-9.5 9.5 -24.5 9.5q-21 0 -34.5 -21.5t-13.5 -64.5h-45q0 60 25.5 97t71.5 37q26 0 41.5 -13.5t33.5 -39.5
q15 -21 24 -30t24 -9q21 0 34.5 21.5t13.5 64.5h45q0 -60 -25.5 -97t-71.5 -37q-27 0 -42.5 13.5t-33.5 39.5q-13 20 -22.5 29.5z" />
    <glyph glyph-name="Umacron" unicode="&#x16a;" horiz-adv-x="700" 
d="M78 667h83v-406q0 -93 49 -146t140 -53t140 53t49 146v406h83v-407q0 -127 -69.5 -199.5t-202.5 -72.5t-202.5 72.5t-69.5 198.5v408zM169 787h363v-48h-363v48z" />
    <glyph glyph-name="umacron" unicode="&#x16b;" horiz-adv-x="551" 
d="M401 68q-30 -34 -75.5 -57t-96.5 -23q-154 0 -154 154v341h75v-318q0 -60 27.5 -85t80.5 -25q42 0 81.5 21t61.5 52v355h75v-483h-75v68zM93 620h363v-48h-363v48z" />
    <glyph glyph-name="Ubreve" unicode="&#x16c;" horiz-adv-x="700" 
d="M78 667h83v-406q0 -93 49 -146t140 -53t140 53t49 146v406h83v-407q0 -127 -69.5 -199.5t-202.5 -72.5t-202.5 72.5t-69.5 198.5v408zM254 728.5q-46 23.5 -77 64.5l37 32q25 -34 60.5 -53t78.5 -19t78.5 19t59.5 53l37 -32q-31 -41 -76.5 -64.5t-98.5 -23.5t-99 23.5z
" />
    <glyph glyph-name="ubreve" unicode="&#x16d;" horiz-adv-x="551" 
d="M401 68q-30 -34 -75.5 -57t-96.5 -23q-154 0 -154 154v341h75v-318q0 -60 27.5 -85t80.5 -25q42 0 81.5 21t61.5 52v355h75v-483h-75v68zM178 561.5q-46 23.5 -77 64.5l37 32q25 -34 60.5 -53t78.5 -19t78.5 19t59.5 53l37 -32q-31 -41 -76.5 -64.5t-98.5 -23.5t-99 23.5
z" />
    <glyph glyph-name="Uring" unicode="&#x16e;" horiz-adv-x="700" 
d="M78 667h83v-406q0 -93 49 -146t140 -53t140 53t49 146v406h83v-407q0 -127 -69.5 -199.5t-202.5 -72.5t-202.5 72.5t-69.5 198.5v408zM282 878q29 29 69 29t69 -29t29 -70q0 -40 -28.5 -69t-69.5 -29q-40 0 -69 29t-29 69q0 41 29 70zM392.5 850q-16.5 17 -41.5 17
q-24 0 -41 -17t-17 -42q0 -24 17 -41.5t41 -17.5t41 17.5t17 41.5q0 25 -16.5 42z" />
    <glyph glyph-name="uring" unicode="&#x16f;" horiz-adv-x="551" 
d="M401 68q-30 -34 -75.5 -57t-96.5 -23q-154 0 -154 154v341h75v-318q0 -60 27.5 -85t80.5 -25q42 0 81.5 21t61.5 52v355h75v-483h-75v68zM207 711q29 29 69 29t69 -29t29 -70q0 -40 -28.5 -69t-69.5 -29q-40 0 -69 29t-29 69q0 41 29 70zM317.5 683q-16.5 17 -41.5 17
q-24 0 -41 -17t-17 -42q0 -24 17 -41.5t41 -17.5t41 17.5t17 41.5q0 25 -16.5 42z" />
    <glyph glyph-name="Uhungarumlaut" unicode="&#x170;" horiz-adv-x="700" 
d="M78 667h83v-406q0 -93 49 -146t140 -53t140 53t49 146v406h83v-407q0 -127 -69.5 -199.5t-202.5 -72.5t-202.5 72.5t-69.5 198.5v408zM241 723l94 144h69l-115 -144h-48zM383 723l94 144h69l-115 -144h-48z" />
    <glyph glyph-name="uhungarumlaut" unicode="&#x171;" horiz-adv-x="551" 
d="M401 68q-30 -34 -75.5 -57t-96.5 -23q-154 0 -154 154v341h75v-318q0 -60 27.5 -85t80.5 -25q42 0 81.5 21t61.5 52v355h75v-483h-75v68zM166 556l94 144h69l-115 -144h-48zM308 556l94 144h69l-115 -144h-48z" />
    <glyph glyph-name="Uogonek" unicode="&#x172;" horiz-adv-x="700" 
d="M78 667h83v-406q0 -93 49 -146t140 -53t140 53t49 146v406h83v-407q0 -98 -40 -162.5t-118 -92.5q-53 -18 -82.5 -44t-29.5 -55q0 -18 12 -28.5t30 -10.5q17 0 33 9l19 -45q-25 -17 -68 -17q-40 0 -69 19.5t-29 55.5q0 29 22.5 54.5t60.5 44.5h-13q-133 0 -202.5 72.5
t-69.5 198.5v408z" />
    <glyph glyph-name="uogonek" unicode="&#x173;" horiz-adv-x="551" 
d="M476 483v-483q-44 -19 -69 -43t-25 -51q0 -18 12 -28.5t30 -10.5q17 0 33 9l19 -45q-25 -17 -68 -17q-40 0 -69 19.5t-29 55.5q0 32 28.5 61t75.5 50h-13v68q-30 -34 -75.5 -57t-96.5 -23q-154 0 -154 154v341h75v-318q0 -60 27.5 -85t80.5 -25q42 0 81.5 21t61.5 52v355
h75z" />
    <glyph glyph-name="Wcircumflex" unicode="&#x174;" horiz-adv-x="883" 
d="M441 538l-147 -538h-90l-190 667h92l148 -556l153 556h69l153 -556l147 556h92l-190 -667h-90zM440 829l-80 -106h-51l95 144h72l98 -144h-51z" />
    <glyph glyph-name="wcircumflex" unicode="&#x175;" horiz-adv-x="734" 
d="M367 388l-126 -388h-75l-154 483h78l118 -385l127 385h64l127 -385l118 385h78l-154 -483h-75zM366 662l-80 -106h-51l95 144h72l98 -144h-51z" />
    <glyph glyph-name="Ycircumflex" unicode="&#x176;" horiz-adv-x="626" 
d="M313 829l-80 -106h-51l95 144h72l98 -144h-51zM272 282l-263 385h97l207 -310l207 310h97l-262 -385v-282h-83v282z" />
    <glyph glyph-name="ycircumflex" unicode="&#x177;" horiz-adv-x="490" 
d="M101 -129q26 0 43 11t29 40l32 73l-202 488h81l161 -396l160 396h82l-242 -581q-21 -51 -56.5 -74t-85.5 -24q-30 0 -55 7l12 68q18 -8 41 -8zM244 662l-80 -106h-51l95 144h72l98 -144h-51z" />
    <glyph glyph-name="Ydieresis" unicode="&#x178;" horiz-adv-x="626" 
d="M179 738q-14 14 -14 33t14 32.5t33 13.5t32.5 -13.5t13.5 -32.5t-13.5 -33t-32.5 -14t-33 14zM385 738q-14 14 -14 33t14 32.5t33 13.5t33 -13.5t14 -32.5t-14 -33t-33 -14t-33 14zM272 282l-263 385h97l207 -310l207 310h97l-262 -385v-282h-83v282z" />
    <glyph glyph-name="Zacute" unicode="&#x179;" horiz-adv-x="585" 
d="M48 69l375 524h-375v74h481v-69l-375 -524h382v-74h-488v69zM235 723l148 144h78l-169 -144h-57z" />
    <glyph glyph-name="zacute" unicode="&#x17a;" horiz-adv-x="472" 
d="M52 58l266 359h-266v66h364v-57l-268 -361h272v-65h-368v58zM178 556l148 144h78l-169 -144h-57z" />
    <glyph glyph-name="Zdotaccent" unicode="&#x17b;" horiz-adv-x="585" 
d="M48 69l375 524h-375v74h481v-69l-375 -524h382v-74h-488v69zM257 802q14 14 33 14t32.5 -13.5t13.5 -33.5t-13.5 -33.5t-32.5 -13.5t-33 14t-14 33t14 33z" />
    <glyph glyph-name="zdotaccent" unicode="&#x17c;" horiz-adv-x="472" 
d="M52 58l266 359h-266v66h364v-57l-268 -361h272v-65h-368v58zM202 635q14 14 33 14t32.5 -13.5t13.5 -33.5t-13.5 -33.5t-32.5 -13.5t-33 14t-14 33t14 33z" />
    <glyph glyph-name="Zcaron" unicode="&#x17d;" horiz-adv-x="585" 
d="M157 867h51l83 -106l80 106h51l-95 -144h-72zM48 69l375 524h-375v74h481v-69l-375 -524h382v-74h-488v69z" />
    <glyph glyph-name="zcaron" unicode="&#x17e;" horiz-adv-x="472" 
d="M52 58l266 359h-266v66h364v-57l-268 -361h272v-65h-368v58zM98 700h51l83 -106l80 106h51l-95 -144h-72z" />
    <glyph glyph-name="longs" unicode="&#x17f;" horiz-adv-x="283" 
d="M96 417h-80v66h80v37q0 74 38 115.5t102 41.5q46 0 73 -17l-19 -56q-19 11 -43 11q-37 0 -56.5 -24.5t-19.5 -70.5v-520h-75v417z" />
    <glyph glyph-name="uni018F" unicode="&#x18f;" horiz-adv-x="730" 
d="M509.5 634.5q78.5 -43.5 124.5 -122t46 -179.5t-44 -180t-119.5 -122.5t-167.5 -43.5q-101 0 -175 46t-113 129.5t-39 194.5h570q-5 72 -39.5 128.5t-91 87.5t-125.5 31q-58 0 -109.5 -25t-83.5 -67l-66 41q101 125 259 125q95 0 173.5 -43.5zM459.5 89q52.5 28 86 78
t42.5 116h-476q11 -97 71.5 -159.5t159.5 -62.5q64 0 116.5 28z" />
    <glyph glyph-name="uni0192" unicode="&#x192;" horiz-adv-x="431" 
d="M117 254h-68v68h82l46 204q15 70 62 110.5t112 40.5q30 0 52.5 -8t41.5 -28l-37 -61q-18 23 -50 23q-36 0 -63 -24.5t-37 -67.5l-42 -189h139v-68h-154l-92 -415h-84z" />
    <glyph glyph-name="Ohorn" unicode="&#x1a0;" horiz-adv-x="765" 
d="M701 593.5q-18 -33.5 -47 -55.5q59 -87 59 -205q0 -98 -42 -176.5t-117 -123.5t-172 -45t-172.5 45t-117 123.5t-41.5 176.5t41.5 176.5t117 123.5t172.5 45q76 0 140.5 -29t109.5 -81q18 15 30.5 36t14.5 40q-2 -2 -11 -2q-17 0 -28 12t-11 29q0 18 12 31t30 13
q21 0 35.5 -17t14.5 -46q0 -37 -18 -70.5zM510.5 97q55.5 35 86 97t30.5 139q0 78 -30.5 139.5t-86 96.5t-128.5 35q-74 0 -129.5 -35t-85.5 -96.5t-30 -139.5q0 -77 30 -139t86 -97t129 -35t128.5 35z" />
    <glyph glyph-name="ohorn" unicode="&#x1a1;" 
d="M511 464q-16 -32 -42 -53q27 -34 41.5 -77t14.5 -92q0 -70 -29.5 -128t-83.5 -92t-126 -34t-126 34t-83.5 92t-29.5 128t29.5 128t83.5 91.5t126 33.5q94 0 157 -57q17 15 28.5 34.5t13.5 37.5l-11 -1q-17 0 -28.5 11.5t-11.5 29.5q0 17 12.5 30t30.5 13q21 0 35.5 -17
t14.5 -46q0 -34 -16 -66zM372 80.5q36 25.5 55 68.5t19 93t-19 92.5t-55 68t-86 25.5t-86.5 -25.5t-55.5 -68t-19 -92.5t19 -93t55.5 -68.5t86.5 -25.5t86 25.5z" />
    <glyph glyph-name="Uhorn" unicode="&#x1af;" horiz-adv-x="700" 
d="M706.5 638q-31.5 -42 -84.5 -63v-315q0 -127 -69.5 -199.5t-202.5 -72.5t-202.5 72.5t-69.5 198.5v408h83v-406q0 -93 49 -146t140 -53t140 53t49 146v406h83v-53q30 15 51 41t22 53l-11 -1q-17 0 -28 11.5t-11 29.5t12.5 30.5t30.5 12.5q21 0 35.5 -17t14.5 -46
q0 -48 -31.5 -90z" />
    <glyph glyph-name="uhorn" unicode="&#x1b0;" horiz-adv-x="551" 
d="M544.5 454.5q-25.5 -38.5 -68.5 -61.5v-393h-75v68q-30 -34 -75.5 -57t-96.5 -23q-154 0 -154 154v341h75v-318q0 -60 27.5 -85t80.5 -25q42 0 81.5 21t61.5 52v355h75v-48q22 16 36 38t15 43l-11 -1q-17 0 -28.5 11.5t-11.5 29.5q0 17 12.5 30t30.5 13q21 0 36 -17
t15 -46q0 -43 -25.5 -81.5z" />
    <glyph glyph-name="AEacute" unicode="&#x1fc;" horiz-adv-x="947" 
d="M456 148h-263l-91 -148h-95l416 667h470v-74h-354v-215h347v-74h-347v-230h354v-74h-437v148zM234 222h222v359zM442 723l148 144h78l-169 -144h-57z" />
    <glyph glyph-name="aeacute" unicode="&#x1fd;" horiz-adv-x="889" 
d="M524 99q43 -47 113 -47q40 0 76 15.5t63 45.5l36 -51q-35 -36 -81 -55t-97 -19q-65 0 -114.5 28.5t-78.5 87.5q-26 -52 -79.5 -84t-119.5 -32q-82 0 -138 42.5t-56 117.5q0 50 24.5 86t65 54.5t88.5 18.5q112 0 175 -64v86q0 47 -36.5 74t-96.5 27q-48 0 -87 -16t-74 -51
l-35 52q79 80 205 80q64 0 111 -26t60 -79q27 47 72 76t107 29q67 0 116 -34t74.5 -93t25.5 -132v-19h-367q5 -71 48 -118zM752.5 348q-15.5 37 -48.5 61t-82 24q-45 0 -77.5 -24t-49.5 -61t-19 -76h293q-1 39 -16.5 76zM338 237q-39 16 -82 16q-59 0 -95 -27.5t-36 -73.5
q0 -45 36 -72.5t95 -27.5q41 0 74 18.5t52 48t19 61.5v12q-24 29 -63 45zM360 556l148 144h78l-169 -144h-57z" />
    <glyph glyph-name="Oslashacute" unicode="&#x1fe;" horiz-adv-x="765" 
d="M383 723h-57l148 144h78zM682 487.5q31 -70.5 31 -154.5q0 -98 -42 -176.5t-117 -123.5t-172 -45t-173 45l-22 -33h-66l44 65q-54 48 -84 117t-30 151q0 98 41.5 176.5t117 123.5t172.5 45q92 0 167 -42l21 31h66l-42 -62q57 -47 88 -117.5zM156 220.5q19 -51.5 54 -88.5
l296 440q-58 32 -124 32q-74 0 -129.5 -35t-85.5 -96.5t-30 -139.5q0 -61 19 -112.5zM510.5 97q55.5 35 86 97t30.5 139q0 63 -20 116t-57 89l-297 -441q57 -35 129 -35q73 0 128.5 35z" />
    <glyph glyph-name="oslashacute" unicode="&#x1ff;" 
d="M286 556h-57l148 144h78zM507 344q18 -47 18 -102q0 -70 -29.5 -128t-83.5 -92t-126 -34q-81 0 -142 45l-26 -33h-54l48 61q-32 35 -48.5 81.5t-16.5 99.5q0 70 29.5 128t83.5 91.5t126 33.5q79 0 137 -41l23 29h54l-45 -57q34 -35 52 -82zM160 121l218 277
q-38 30 -92 30q-50 0 -86.5 -25.5t-55.5 -68t-19 -92.5q0 -69 35 -121zM372 80.5q36 25.5 55 68.5t19 93q0 73 -38 125l-220 -278q42 -34 98 -34q50 0 86 25.5z" />
    <glyph glyph-name="uni0218" unicode="&#x218;" horiz-adv-x="586" 
d="M87 157q37 -41 91 -68t119 -27q81 0 119 34.5t38 80.5q0 37 -22.5 60.5t-55.5 36.5t-91 29q-74 19 -118.5 37t-76 54.5t-31.5 97.5q0 54 30 96t82 65.5t117 23.5q149 0 237 -93l-50 -61q-36 40 -86 60t-107 20q-60 0 -98.5 -29.5t-38.5 -76.5q0 -31 21.5 -51.5t52.5 -32
t88 -26.5q74 -20 120.5 -39.5t79.5 -59t33 -104.5q0 -52 -25 -96.5t-80.5 -72t-140.5 -27.5q-83 0 -147.5 28.5t-108.5 77.5zM241 -246q23 15 39.5 39.5t18.5 46.5q-2 -2 -11 -2q-18 0 -30 12.5t-12 31.5q0 20 13.5 33.5t32.5 13.5q22 0 37.5 -18t15.5 -49q0 -39 -20 -75
t-51 -59z" />
    <glyph glyph-name="uni0219" unicode="&#x219;" horiz-adv-x="465" 
d="M72 118q25 -29 68.5 -49t90.5 -20q54 0 84 23t30 60q0 25 -16.5 40.5t-40.5 23.5t-67 19q-56 13 -90.5 26t-59.5 41t-25 74q0 38 21.5 69.5t62 50.5t96.5 19q109 0 179 -70l-35 -52q-23 27 -61 44t-83 17q-49 0 -78 -21.5t-29 -54.5q0 -31 28.5 -45t89.5 -29
q56 -13 92.5 -27t62.5 -43.5t26 -79.5q0 -64 -50 -105t-140 -41q-123 0 -195 76zM187 -246q23 15 39.5 39.5t18.5 46.5q-2 -2 -11 -2q-18 0 -30 12.5t-12 31.5q0 20 13.5 33.5t32.5 13.5q22 0 37.5 -18t15.5 -49q0 -39 -20 -75t-51 -59z" />
    <glyph glyph-name="uni021A" unicode="&#x21a;" horiz-adv-x="570" 
d="M243 593h-211v74h506v-74h-212v-593h-83v593zM237 -246q23 15 39.5 39.5t18.5 46.5q-2 -2 -11 -2q-18 0 -30 12.5t-12 31.5q0 20 13.5 33.5t32.5 13.5q22 0 37.5 -18t15.5 -49q0 -39 -20 -75t-51 -59z" />
    <glyph glyph-name="uni021B" unicode="&#x21b;" horiz-adv-x="294" 
d="M117 17q-27 29 -27 84v316h-80v66h80v132h75v-132h98v-66h-98v-300q0 -28 12.5 -45t36.5 -17q15 0 29 5.5t22 14.5l22 -56q-33 -31 -90 -31q-53 0 -80 29zM99 -246q23 15 39.5 39.5t18.5 46.5q-2 -2 -11 -2q-18 0 -30 12.5t-12 31.5q0 20 13.5 33.5t32.5 13.5
q22 0 37.5 -18t15.5 -49q0 -39 -20 -75t-51 -59z" />
    <glyph glyph-name="uni0237" unicode="&#x237;" horiz-adv-x="225" 
d="M-36 -126q12 -5 36 -5q75 0 75 84v530h75v-530q0 -71 -37 -110t-105 -39q-32 0 -54 7z" />
    <glyph glyph-name="uni0259" unicode="&#x259;" horiz-adv-x="563" 
d="M485 114q-31 -58 -85 -92t-122 -34q-71 0 -123.5 34t-80.5 93t-28 132v19h390q-5 71 -51.5 119t-121.5 48q-42 0 -81.5 -16t-68.5 -45l-36 49q76 74 192 74q71 0 127 -32t88 -90t32 -132q0 -69 -31 -127zM362.5 74q35.5 24 54 61t20.5 76h-317q1 -39 18.5 -76t53 -61
t86.5 -24q49 0 84.5 24z" />
    <glyph glyph-name="uni02B0" unicode="&#x2b0;" horiz-adv-x="398" 
d="M280 528q0 39 -18 55.5t-53 16.5q-27 0 -51.5 -13.5t-40.5 -32.5v-228h-57v434h57v-165q19 22 50 37.5t66 15.5q105 0 105 -107v-215h-58v202z" />
    <glyph glyph-name="uni02BC" unicode="&#x2bc;" horiz-adv-x="230" 
d="M57 481q24 16 43 42.5t22 50.5q-4 -2 -14 -2q-21 0 -34.5 14.5t-13.5 36.5t15.5 38t37.5 16q26 0 44.5 -20.5t18.5 -55.5q0 -44 -23 -84.5t-59 -66.5z" />
    <glyph glyph-name="circumflex" unicode="&#x2c6;" horiz-adv-x="265" 
d="M131 662l-80 -106h-51l95 144h72l98 -144h-51z" />
    <glyph glyph-name="caron" unicode="&#x2c7;" horiz-adv-x="265" 
d="M0 700h51l83 -106l80 106h51l-95 -144h-72z" />
    <glyph glyph-name="uni02C9" unicode="&#x2c9;" horiz-adv-x="363" 
d="M0 639h363v-48h-363v48z" />
    <glyph glyph-name="uni02CB" unicode="&#x2cb;" horiz-adv-x="226" 
d="M0 700h78l148 -144h-57z" />
    <glyph glyph-name="breve" unicode="&#x2d8;" horiz-adv-x="351" 
d="M77 561.5q-46 23.5 -77 64.5l37 32q25 -34 60.5 -53t78.5 -19t78.5 19t59.5 53l37 -32q-31 -41 -76.5 -64.5t-98.5 -23.5t-99 23.5z" />
    <glyph glyph-name="dotaccent" unicode="&#x2d9;" horiz-adv-x="111" 
d="M23 635q14 14 33 14t32.5 -13.5t13.5 -33.5t-13.5 -33.5t-32.5 -13.5t-33 14t-14 33t14 33z" />
    <glyph glyph-name="ring" unicode="&#x2da;" horiz-adv-x="196" 
d="M29 711q29 29 69 29t69 -29t29 -70q0 -40 -28.5 -69t-69.5 -29q-40 0 -69 29t-29 69q0 41 29 70zM139.5 683q-16.5 17 -41.5 17q-24 0 -41 -17t-17 -42q0 -24 17 -41.5t41 -17.5t41 17.5t17 41.5q0 25 -16.5 42z" />
    <glyph glyph-name="ogonek" unicode="&#x2db;" horiz-adv-x="178" 
d="M53 -186q-40 0 -69 19.5t-29 55.5q0 35 33 65.5t85 51.5l48 -6q-44 -19 -69 -43t-25 -51q0 -18 12 -28.5t30 -10.5q16 0 33 9l19 -45q-26 -17 -68 -17z" />
    <glyph glyph-name="tilde" unicode="&#x2dc;" horiz-adv-x="313" 
d="M117.5 636.5q-9.5 9.5 -24.5 9.5q-21 0 -34.5 -21.5t-13.5 -64.5h-45q0 60 25.5 97t71.5 37q26 0 41.5 -13.5t33.5 -39.5q15 -21 24 -30t24 -9q21 0 34.5 21.5t13.5 64.5h45q0 -60 -25.5 -97t-71.5 -37q-27 0 -42.5 13.5t-33.5 39.5q-13 20 -22.5 29.5z" />
    <glyph glyph-name="hungarumlaut" unicode="&#x2dd;" horiz-adv-x="305" 
d="M0 556l94 144h69l-115 -144h-48zM142 556l94 144h69l-115 -144h-48z" />
    <glyph glyph-name="uni02E1" unicode="&#x2e1;" horiz-adv-x="178" 
d="M60 760h58v-434h-58v434z" />
    <glyph glyph-name="uni02E2" unicode="&#x2e2;" horiz-adv-x="330" 
d="M54 407q17 -20 46 -33.5t61 -13.5q35 0 54.5 14t19.5 38q0 23 -19.5 32.5t-64.5 21.5q-38 8 -60.5 16.5t-39 26t-16.5 48.5q0 38 33 64.5t90 26.5q80 0 122 -46l-25 -35q-15 18 -40.5 28.5t-54.5 10.5q-32 0 -50.5 -14t-18.5 -35q0 -20 18.5 -28.5t59.5 -17.5
q37 -7 61.5 -16t42 -27.5t17.5 -51.5q0 -43 -34 -70.5t-96 -27.5q-80 0 -133 53z" />
    <glyph glyph-name="uni0309" unicode="&#x309;" horiz-adv-x="0" 
d="M-136 775q19 15 46 15q31 0 51.5 -17.5t20.5 -51.5q0 -16 -4.5 -28t-14.5 -26h-40q23 23 23 52q0 19 -9.5 29t-26.5 10q-29 0 -40 -32l-33 9q8 25 27 40z" />
    <glyph glyph-name="uni0326" unicode="&#x326;" horiz-adv-x="0" 
d="M-167 -246q23 15 39.5 39.5t18.5 46.5q-2 -2 -11 -2q-18 0 -30 12.5t-12 31.5q0 20 13.5 33.5t32.5 13.5q22 0 37.5 -18t15.5 -49q0 -39 -20 -75t-51 -59z" />
    <glyph glyph-name="uni037E" unicode="&#x37e;" horiz-adv-x="230" 
d="M76.5 396.5q-16.5 16.5 -16.5 38.5q0 23 16.5 39t38.5 16q23 0 39 -16t16 -39q0 -22 -16.5 -38.5t-38.5 -16.5t-38.5 16.5zM57 -96q25 16 43.5 42.5t21.5 50.5q-4 -2 -14 -2q-21 0 -34.5 14.5t-13.5 36.5t15.5 38t37.5 16q26 0 44.5 -20.5t18.5 -55.5q0 -44 -23 -84.5
t-59 -66.5z" />
    <glyph glyph-name="tonos" unicode="&#x384;" horiz-adv-x="199" 
d="M119 765h76l-58 -200h-37z" />
    <glyph glyph-name="dieresistonos" unicode="&#x385;" horiz-adv-x="551" 
d="M262 765h76l-57 -200h-38zM108.5 570.5q-13.5 13.5 -13.5 33.5q0 19 13.5 32.5t32.5 13.5t32.5 -13.5t13.5 -32.5t-13.5 -33t-32.5 -14t-32.5 13.5zM377.5 570.5q-13.5 13.5 -13.5 33.5q0 19 13.5 32.5t32.5 13.5t32.5 -13.5t13.5 -32.5t-13.5 -33t-32.5 -14t-32.5 13.5z
" />
    <glyph glyph-name="Alphatonos" unicode="&#x386;" horiz-adv-x="658" 
d="M164 765h76l-58 -200h-37zM495 148h-332l-59 -148h-95l268 667h103l269 -667h-95zM187 222h283l-141 359z" />
    <glyph glyph-name="Epsilontonos" unicode="&#x388;" horiz-adv-x="586" 
d="M6 765h76l-58 -200h-37zM95 667h437v-74h-354v-215h347v-74h-347v-230h354v-74h-437v667z" />
    <glyph glyph-name="Etatonos" unicode="&#x389;" horiz-adv-x="729" 
d="M6 765h76l-58 -200h-37zM568 306h-390v-306h-83v667h83v-287h390v287h83v-667h-83v306z" />
    <glyph glyph-name="Iotatonos" unicode="&#x38a;" horiz-adv-x="255" 
d="M6 765h76l-58 -200h-37zM95 667h83v-667h-83v667z" />
    <glyph glyph-name="Omicrontonos" unicode="&#x38c;" horiz-adv-x="765" 
d="M41 765h76l-58 -200h-37zM92.5 509.5q41.5 78.5 117 123.5t172.5 45t172 -45t117 -123.5t42 -176.5t-42 -176.5t-117 -123.5t-172 -45t-172.5 45t-117 123.5t-41.5 176.5t41.5 176.5zM596.5 472.5q-30.5 61.5 -86 96.5t-128.5 35q-74 0 -129.5 -35t-85.5 -96.5
t-30 -139.5q0 -77 30 -139t86 -97t129 -35t128.5 35t86 97t30.5 139q0 78 -30.5 139.5z" />
    <glyph glyph-name="Upsilontonos" unicode="&#x38e;" horiz-adv-x="684" 
d="M6 765h76l-58 -200h-37zM330 282l-263 385h97l207 -310l207 310h97l-262 -385v-282h-83v282z" />
    <glyph glyph-name="Omegatonos" unicode="&#x38f;" horiz-adv-x="769" 
d="M41 765h76l-58 -200h-37zM96.5 185q-41.5 69 -41.5 163q0 95 41.5 170t117 117.5t172.5 42.5t172.5 -42.5t117 -117.5t41.5 -170q0 -94 -41 -163t-110 -111h134v-74h-240v74q45 11 84 45.5t63 89.5t24 125q0 75 -28.5 136t-84 97t-132.5 36t-132.5 -36t-84 -97
t-28.5 -136q0 -70 24 -125t63.5 -89.5t84.5 -45.5v-74h-240v74h135q-70 42 -111.5 111z" />
    <glyph glyph-name="iotadieresistonos" unicode="&#x390;" horiz-adv-x="239" 
d="M75 483h75v-370q0 -27 12 -42.5t35 -15.5q11 0 19 2l6 -65q-22 -4 -40 -4q-53 0 -80 29t-27 84v382zM106 765h76l-57 -200h-38zM-47.5 570.5q-13.5 13.5 -13.5 33.5q0 19 13.5 32.5t32.5 13.5t32.5 -13.5t13.5 -32.5t-13.5 -33t-32.5 -14t-32.5 13.5zM221.5 570.5
q-13.5 13.5 -13.5 33.5q0 19 13.5 32.5t32.5 13.5t32.5 -13.5t13.5 -32.5t-13.5 -33t-32.5 -14t-32.5 13.5z" />
    <glyph glyph-name="Alpha" unicode="&#x391;" horiz-adv-x="658" 
d="M495 148h-332l-59 -148h-95l268 667h103l269 -667h-95zM187 222h283l-141 359z" />
    <glyph glyph-name="Beta" unicode="&#x392;" horiz-adv-x="629" 
d="M78 667h297q86 0 136.5 -47t50.5 -123q0 -60 -34 -101.5t-83 -51.5q35 -5 65 -29t47.5 -60t17.5 -75q0 -81 -51.5 -130.5t-141.5 -49.5h-304v667zM361 378q55 0 85 30t30 77t-30.5 77.5t-84.5 30.5h-200v-215h200zM365 74q58 0 91 31t33 84q0 49 -32.5 82t-91.5 33h-204
v-230h204z" />
    <glyph glyph-name="Gamma" unicode="&#x393;" horiz-adv-x="550" 
d="M78 667h437v-74h-354v-593h-83v667z" />
    <glyph glyph-name="uni0394" unicode="&#x394;" horiz-adv-x="658" 
d="M277 667h103l269 -667h-640zM128 74h402l-201 507z" />
    <glyph glyph-name="Epsilon" unicode="&#x395;" horiz-adv-x="569" 
d="M78 667h437v-74h-354v-215h347v-74h-347v-230h354v-74h-437v667z" />
    <glyph glyph-name="Zeta" unicode="&#x396;" horiz-adv-x="585" 
d="M48 69l375 524h-375v74h481v-69l-375 -524h382v-74h-488v69z" />
    <glyph glyph-name="Eta" unicode="&#x397;" horiz-adv-x="712" 
d="M551 306h-390v-306h-83v667h83v-287h390v287h83v-667h-83v306z" />
    <glyph glyph-name="Theta" unicode="&#x398;" horiz-adv-x="765" 
d="M92.5 509.5q41.5 78.5 117 123.5t172.5 45t172 -45t117 -123.5t42 -176.5t-42 -176.5t-117 -123.5t-172 -45t-172.5 45t-117 123.5t-41.5 176.5t41.5 176.5zM596.5 472.5q-30.5 61.5 -86 96.5t-128.5 35q-74 0 -129.5 -35t-85.5 -96.5t-30 -139.5q0 -77 30 -139t86 -97
t129 -35t128.5 35t86 97t30.5 139q0 78 -30.5 139.5zM196 378h373v-74h-373v74z" />
    <glyph glyph-name="Iota" unicode="&#x399;" horiz-adv-x="239" 
d="M78 667h83v-667h-83v667z" />
    <glyph glyph-name="Kappa" unicode="&#x39a;" horiz-adv-x="601" 
d="M228 300l-67 -76v-224h-83v667h83v-345l295 345h104l-278 -317l302 -350h-103z" />
    <glyph glyph-name="Lambda" unicode="&#x39b;" horiz-adv-x="658" 
d="M329 581l-225 -581h-95l268 667h103l269 -667h-95z" />
    <glyph glyph-name="Mu" unicode="&#x39c;" horiz-adv-x="809" 
d="M648 549l-227 -549h-34l-226 549v-549h-83v667h119l207 -502l208 502h119v-667h-83v549z" />
    <glyph glyph-name="Nu" unicode="&#x39d;" horiz-adv-x="708" 
d="M161 532v-532h-83v667h85l384 -521v521h83v-667h-80z" />
    <glyph glyph-name="Xi" unicode="&#x39e;" horiz-adv-x="615" 
d="M55 667h505v-74h-505v74zM62 378h492v-74h-492v74zM54 74h506v-74h-506v74z" />
    <glyph glyph-name="Omicron" unicode="&#x39f;" horiz-adv-x="765" 
d="M92.5 509.5q41.5 78.5 117 123.5t172.5 45t172 -45t117 -123.5t42 -176.5t-42 -176.5t-117 -123.5t-172 -45t-172.5 45t-117 123.5t-41.5 176.5t41.5 176.5zM596.5 472.5q-30.5 61.5 -86 96.5t-128.5 35q-74 0 -129.5 -35t-85.5 -96.5t-30 -139.5q0 -77 30 -139t86 -97
t129 -35t128.5 35t86 97t30.5 139q0 78 -30.5 139.5z" />
    <glyph glyph-name="Pi" unicode="&#x3a0;" horiz-adv-x="712" 
d="M551 593h-390v-593h-83v667h556v-667h-83v593z" />
    <glyph glyph-name="Rho" unicode="&#x3a1;" horiz-adv-x="587" 
d="M78 667h268q65 0 112.5 -27t72 -73t24.5 -101t-25 -101t-72.5 -73t-111.5 -27h-185v-265h-83v667zM432 557.5q-37 35.5 -96 35.5h-175v-254h175q59 0 96 35.5t37 91.5t-37 91.5z" />
    <glyph glyph-name="Sigma" unicode="&#x3a3;" horiz-adv-x="575" 
d="M521 74v-74h-467v74l231 268l-230 251v74h466v-74h-364l229 -250l-232 -269h367z" />
    <glyph glyph-name="Tau" unicode="&#x3a4;" horiz-adv-x="570" 
d="M243 593h-211v74h506v-74h-212v-593h-83v593z" />
    <glyph glyph-name="Upsilon" unicode="&#x3a5;" horiz-adv-x="626" 
d="M272 282l-263 385h97l207 -310l207 310h97l-262 -385v-282h-83v282z" />
    <glyph glyph-name="Phi" unicode="&#x3a6;" horiz-adv-x="806" 
d="M717.5 199.5q-37.5 -58.5 -107.5 -93.5t-166 -41v-65h-83v65q-95 6 -165 41.5t-107.5 93.5t-37.5 133q0 74 37.5 132.5t107.5 94t165 41.5v66h83v-66q95 -6 165.5 -41.5t108 -93.5t37.5 -133t-37.5 -133.5zM196.5 200.5q59.5 -52.5 164.5 -60.5v386q-106 -8 -165 -60
t-59 -133q0 -80 59.5 -132.5zM609 200.5q60 52.5 60 132.5q0 81 -60 133t-165 60v-386q105 8 165 60.5z" />
    <glyph glyph-name="Chi" unicode="&#x3a7;" horiz-adv-x="652" 
d="M326 284l-213 -284h-101l260 342l-245 325h101l198 -267l197 267h101l-244 -324l259 -343h-100z" />
    <glyph glyph-name="Psi" unicode="&#x3a8;" horiz-adv-x="796" 
d="M718 667v-271q0 -119 -71 -190t-207 -80v-126h-83v125q-137 10 -208 81t-71 189v272h83v-270q0 -86 50.5 -137t145.5 -59v466h83v-466q95 8 144.5 59t49.5 137v270h84z" />
    <glyph glyph-name="uni03A9" unicode="&#x3a9;" horiz-adv-x="765" 
d="M92.5 185q-41.5 69 -41.5 163q0 95 41.5 170t117 117.5t172.5 42.5t172.5 -42.5t117 -117.5t41.5 -170q0 -94 -41 -163t-110 -111h134v-74h-240v74q45 11 84 45.5t63 89.5t24 125q0 75 -28.5 136t-84 97t-132.5 36t-132.5 -36t-84 -97t-28.5 -136q0 -70 24 -125
t63.5 -89.5t84.5 -45.5v-74h-240v74h135q-70 42 -111.5 111z" />
    <glyph glyph-name="Iotadieresis" unicode="&#x3aa;" horiz-adv-x="239" 
d="M78 667h83v-667h-83v667zM-17 755q-14 14 -14 33t14 32.5t33 13.5t32.5 -13.5t13.5 -32.5t-13.5 -33t-32.5 -14t-33 14zM189 755q-14 14 -14 33t14 32.5t33 13.5t33 -13.5t14 -32.5t-14 -33t-33 -14t-33 14z" />
    <glyph glyph-name="Upsilondieresis" unicode="&#x3ab;" horiz-adv-x="626" 
d="M272 282l-263 385h97l207 -310l207 310h97l-262 -385v-282h-83v282zM177 755q-14 14 -14 33t14 32.5t33 13.5t32.5 -13.5t13.5 -32.5t-13.5 -33t-32.5 -14t-33 14zM383 755q-14 14 -14 33t14 32.5t33 13.5t33 -13.5t14 -32.5t-14 -33t-33 -14t-33 14z" />
    <glyph glyph-name="alphatonos" unicode="&#x3ac;" horiz-adv-x="589" 
d="M532 -12q-46 0 -72 23t-32 66q-26 -39 -70.5 -64t-95.5 -25q-63 0 -111.5 30.5t-76 88t-27.5 134.5q0 76 27 133.5t76 89t112 31.5q48 0 90.5 -22.5t71.5 -62.5v73h76v-370q0 -27 12 -42.5t34 -15.5q10 0 20 2l5 -65q-20 -4 -39 -4zM425 350q-21 33 -61.5 55.5
t-83.5 22.5q-71 0 -113 -52.5t-42 -134.5t42 -134t113 -52q44 0 84 22t61 54v219zM285 765h76l-58 -200h-37z" />
    <glyph glyph-name="epsilontonos" unicode="&#x3ad;" horiz-adv-x="514" 
d="M69 192q22 26 54.5 39.5t63.5 15.5q-49 6 -89.5 37t-40.5 81q0 60 60 94.5t158 34.5q127 0 202 -77l-39 -46q-61 62 -162 62q-61 0 -101 -21.5t-40 -55.5q0 -40 40 -60.5t103 -20.5h108v-61h-108q-70 0 -111 -19t-41 -61q0 -38 38.5 -61t103.5 -23q55 0 101.5 16.5
t79.5 48.5l37 -48q-37 -37 -92.5 -58t-125.5 -21q-68 0 -118 18t-76.5 50t-26.5 73q0 37 22 63zM247 765h76l-58 -200h-37z" />
    <glyph glyph-name="etatonos" unicode="&#x3ae;" horiz-adv-x="551" 
d="M401 316q0 61 -28 86.5t-80 25.5q-42 0 -81.5 -22t-61.5 -53v-353h-75v483h75v-70q28 33 75 57.5t97 24.5q154 0 154 -156v-523h-75v500zM266 765h76l-58 -200h-37z" />
    <glyph glyph-name="iotatonos" unicode="&#x3af;" horiz-adv-x="239" 
d="M75 483h75v-370q0 -27 12 -42.5t35 -15.5q11 0 19 2l6 -65q-22 -4 -40 -4q-53 0 -80 29t-27 84v382zM111 765h76l-58 -200h-37z" />
    <glyph glyph-name="upsilondieresistonos" unicode="&#x3b0;" horiz-adv-x="562" 
d="M75 483h75v-270q0 -74 33 -116t92 -42q75 0 118 55.5t43 139.5q0 126 -73 211l67 34q41 -51 63 -114t22 -131q0 -75 -29.5 -134.5t-84 -93.5t-126.5 -34q-98 0 -149 60t-51 164v271zM267 765h76l-57 -200h-38zM113.5 570.5q-13.5 13.5 -13.5 33.5q0 19 13.5 32.5
t32.5 13.5t32.5 -13.5t13.5 -32.5t-13.5 -33t-32.5 -14t-32.5 13.5zM382.5 570.5q-13.5 13.5 -13.5 33.5q0 19 13.5 32.5t32.5 13.5t32.5 -13.5t13.5 -32.5t-13.5 -33t-32.5 -14t-32.5 13.5z" />
    <glyph glyph-name="alpha" unicode="&#x3b1;" horiz-adv-x="589" 
d="M532 -12q-46 0 -72 23t-32 66q-26 -39 -70.5 -64t-95.5 -25q-63 0 -111.5 30.5t-76 88t-27.5 134.5q0 76 27 133.5t76 89t112 31.5q48 0 90.5 -22.5t71.5 -62.5v73h76v-370q0 -27 12 -42.5t34 -15.5q10 0 20 2l5 -65q-20 -4 -39 -4zM425 350q-21 33 -61.5 55.5
t-83.5 22.5q-71 0 -113 -52.5t-42 -134.5t42 -134t113 -52q44 0 84 22t61 54v219z" />
    <glyph glyph-name="beta" unicode="&#x3b2;" horiz-adv-x="575" 
d="M75 -184v639q0 74 32.5 124t84 74t111.5 24q92 0 151 -47.5t59 -130.5q0 -66 -42.5 -105.5t-96.5 -49.5q34 -3 69.5 -22.5t60 -57.5t24.5 -91q0 -54 -27 -96t-74 -65.5t-106 -23.5q-55 0 -99 22.5t-72 61.5v-256h-75zM212.5 76.5q40.5 -21.5 86.5 -21.5q72 0 111.5 35
t39.5 94q0 61 -44 92.5t-113 31.5h-35v67h33q63 0 103 30t40 87q0 54 -37.5 86t-93.5 32q-65 0 -109 -40.5t-44 -114.5v-324q22 -33 62.5 -54.5z" />
    <glyph glyph-name="gamma" unicode="&#x3b3;" horiz-adv-x="490" 
d="M208 -49q0 151 -60.5 295t-154.5 237h88q66 -66 117 -179t62 -211q55 77 91 184t36 206h75q0 -116 -49 -245t-130 -233v-189h-75v135z" />
    <glyph glyph-name="delta" unicode="&#x3b4;" 
d="M410.5 420q46.5 -23 80.5 -71.5t34 -128.5q0 -60 -29 -113.5t-82.5 -86t-124.5 -32.5q-72 0 -127 33t-85 87t-30 115q0 74 38.5 127.5t102.5 80.5q-40 19 -61 44t-21 65q0 38 21 70t61.5 50.5t96.5 18.5q111 0 179 -70l-35 -52q-23 27 -60.5 44t-83.5 17q-49 0 -78 -21.5
t-29 -54.5q0 -29 27 -44t88 -33q71 -22 117.5 -45zM374.5 79.5q37.5 24.5 57.5 62.5t20 78q0 56 -25 91t-62 53.5t-95 37.5q-70 -21 -107.5 -68t-37.5 -111q0 -41 19.5 -80t56.5 -63.5t86 -24.5q50 0 87.5 24.5z" />
    <glyph glyph-name="epsilon" unicode="&#x3b5;" horiz-adv-x="514" 
d="M69 192q22 26 54.5 39.5t63.5 15.5q-49 6 -89.5 37t-40.5 81q0 60 60 94.5t158 34.5q127 0 202 -77l-39 -46q-61 62 -162 62q-61 0 -101 -21.5t-40 -55.5q0 -40 40 -60.5t103 -20.5h108v-61h-108q-70 0 -111 -19t-41 -61q0 -38 38.5 -61t103.5 -23q55 0 101.5 16.5
t79.5 48.5l37 -48q-37 -37 -92.5 -58t-125.5 -21q-68 0 -118 18t-76.5 50t-26.5 73q0 37 22 63z" />
    <glyph glyph-name="zeta" unicode="&#x3b6;" horiz-adv-x="489" 
d="M119.5 55q-72.5 55 -72.5 156q0 116 79 214.5t221 175.5h-284v66h382v-57q-320 -184 -320 -394q0 -75 52.5 -112t145.5 -37q127 0 127 -101q0 -46 -44 -123h-81q46 71 46 109q0 22 -14 35t-43 13q-122 0 -194.5 55z" />
    <glyph glyph-name="eta" unicode="&#x3b7;" horiz-adv-x="551" 
d="M401 316q0 61 -28 86.5t-80 25.5q-42 0 -81.5 -22t-61.5 -53v-353h-75v483h75v-70q28 33 75 57.5t97 24.5q154 0 154 -156v-523h-75v500z" />
    <glyph glyph-name="theta" unicode="&#x3b8;" 
d="M417.5 633.5q53.5 -45.5 80.5 -123.5t27 -176t-27 -176.5t-80.5 -124t-131.5 -45.5t-131.5 45.5t-80.5 124t-27 176.5t27 176t80.5 123.5t131.5 45.5t131.5 -45.5zM170 545.5q-39 -66.5 -44 -177.5h320q-5 112 -43.5 178t-116.5 66q-77 0 -116 -66.5zM402.5 122
q38.5 67 43.5 180h-320q5 -113 43.5 -180t116.5 -67t116.5 67z" />
    <glyph glyph-name="iota" unicode="&#x3b9;" horiz-adv-x="239" 
d="M75 483h75v-370q0 -27 12 -42.5t35 -15.5q11 0 19 2l6 -65q-22 -4 -40 -4q-53 0 -80 29t-27 84v382z" />
    <glyph glyph-name="kappa" unicode="&#x3ba;" horiz-adv-x="514" 
d="M230 217l-80 -79v-138h-75v483h75v-257l254 257h95l-214 -219l215 -264h-96z" />
    <glyph glyph-name="lambda" unicode="&#x3bb;" horiz-adv-x="490" 
d="M188.5 655q35.5 -23 56.5 -74l242 -581h-82l-160 396l-161 -396h-81l202 487l-32 73q-12 29 -29 40.5t-43 11.5q-23 0 -41 -8l-12 67q10 4 26 6t29 2q50 -1 85.5 -24z" />
    <glyph glyph-name="uni03BC" unicode="&#x3bc;" horiz-adv-x="565" 
d="M75 -184v667h75v-318q0 -112 110 -112q41 0 80 22t61 53v355h75v-370q0 -27 12 -42.5t35 -15.5q11 0 19 2l6 -65q-22 -4 -40 -4q-88 0 -104 86q-27 -37 -68 -61.5t-85 -24.5q-75 0 -101 48v-220h-75z" />
    <glyph glyph-name="nu" unicode="&#x3bd;" horiz-adv-x="490" 
d="M3 483h81l164 -407q64 89 101.5 197t37.5 210h75q0 -117 -50 -248t-133 -235h-75z" />
    <glyph glyph-name="xi" unicode="&#x3be;" horiz-adv-x="489" 
d="M89.5 282q42.5 41 94.5 51q-48 8 -87.5 41t-39.5 89q0 44 31 82.5t77 55.5h-100v66h371v-66h-187q-49 -11 -81 -45.5t-32 -74.5q0 -51 43.5 -78.5t108.5 -27.5h143v-65h-143q-73 0 -118 -30.5t-45 -93.5q0 -60 51 -90t147 -30q127 0 127 -100q0 -46 -44 -123h-81
q18 28 32 61.5t14 55.5q0 20 -13.5 30t-43.5 10q-130 0 -198.5 43.5t-68.5 128.5q0 69 42.5 110z" />
    <glyph glyph-name="omicron" unicode="&#x3bf;" 
d="M160 22q-54 34 -83.5 92t-29.5 128t29.5 128t83.5 91.5t126 33.5t126 -33.5t83.5 -91.5t29.5 -128t-29.5 -128t-83.5 -92t-126 -34t-126 34zM372 80.5q36 25.5 55 68.5t19 93t-19 92.5t-55 68t-86 25.5t-86.5 -25.5t-55.5 -68t-19 -92.5t19 -93t55.5 -68.5t86.5 -25.5
t86 25.5z" />
    <glyph glyph-name="pi" unicode="&#x3c0;" horiz-adv-x="582" 
d="M417 417h-252v-417h-75v417h-80v66h562v-66h-80v-417h-75v417z" />
    <glyph glyph-name="rho" unicode="&#x3c1;" 
d="M150 -184h-75v426q0 70 27.5 128t78.5 91.5t119 33.5q69 0 120.5 -33.5t79.5 -91.5t28 -128q0 -77 -27 -134.5t-76 -88.5t-112 -31q-49 0 -91.5 22t-71.5 63v-257zM431.5 334.5q-17.5 42.5 -51.5 68t-81 25.5q-46 0 -80 -25.5t-51.5 -68t-17.5 -92.5v-109
q20 -33 60.5 -55.5t83.5 -22.5q71 0 113 52.5t42 134.5q0 50 -17.5 92.5z" />
    <glyph glyph-name="uni03C2" unicode="&#x3c2;" horiz-adv-x="483" 
d="M77.5 371q30.5 58 85 91t125.5 33q62 0 104 -22t73 -62l-50 -46q-46 63 -123 63q-76 0 -121.5 -52t-45.5 -134q0 -90 52.5 -132.5t142.5 -42.5q67 0 98.5 -21t31.5 -68q0 -26 -11.5 -62.5t-31.5 -72.5h-78q18 27 32 63t14 58q0 20 -14.5 28t-44.5 8q-124 0 -196.5 63
t-72.5 179q0 71 30.5 129z" />
    <glyph glyph-name="sigma" unicode="&#x3c3;" 
d="M160 22q-54 34 -83.5 92t-29.5 128q0 67 30 122t87 87t135 32h248v-67h-115q88 -69 88 -191q0 -65 -28 -119t-81.5 -86t-124.5 -32q-72 0 -126 34zM299 416q-55 0 -94.5 -24.5t-59.5 -64t-20 -85.5q0 -50 19 -93t55.5 -68.5t86.5 -25.5q49 0 85.5 25t55.5 66.5t19 89.5
q0 62 -27.5 109.5t-72.5 70.5h-47z" />
    <glyph glyph-name="tau" unicode="&#x3c4;" horiz-adv-x="468" 
d="M196 417h-170v66h416v-66h-171v-300q0 -28 12.5 -45t36.5 -17q15 0 29 5.5t22 14.5l22 -56q-33 -31 -90 -31q-53 0 -80 29t-27 84v316z" />
    <glyph glyph-name="upsilon" unicode="&#x3c5;" horiz-adv-x="562" 
d="M75 483h75v-270q0 -74 33 -116t92 -42q75 0 118 55.5t43 139.5q0 126 -73 211l67 34q41 -51 63 -114t22 -131q0 -75 -29.5 -134.5t-84 -93.5t-126.5 -34q-98 0 -149 60t-51 164v271z" />
    <glyph glyph-name="phi" unicode="&#x3c6;" horiz-adv-x="744" 
d="M623.5 65q-72.5 -68 -214.5 -76v-173h-75v173q-141 8 -214 78.5t-73 186.5q0 83 50 144t129 97l32 -58q-63 -31 -98 -77t-35 -106q0 -84 51 -137t158 -61v439h38q160 0 242 -68.5t82 -184.5q0 -109 -72.5 -177zM567 114q51 51 51 128q0 79 -53 129.5t-156 55.5v-371
q107 7 158 58z" />
    <glyph glyph-name="chi" unicode="&#x3c7;" horiz-adv-x="486" 
d="M243 89l-148 -273h-83l185 343l-175 324h84l137 -254l137 254h84l-175 -324l186 -343h-84z" />
    <glyph glyph-name="psi" unicode="&#x3c8;" horiz-adv-x="744" 
d="M669 483v-261q0 -103 -66.5 -164t-193.5 -69v-173h-75v173q-127 8 -193 69.5t-66 163.5v261h75v-261q0 -72 48 -115t136 -51v611h75v-611q88 8 136.5 51t48.5 115v261h75z" />
    <glyph glyph-name="omega" unicode="&#x3c9;" horiz-adv-x="808" 
d="M463 31q-42 43 -59 104q-18 -62 -60 -104.5t-107 -42.5q-57 0 -100 34t-66.5 92t-23.5 128q0 81 25.5 147.5t72.5 105.5l54 -46q-74 -69 -74 -207q0 -78 32.5 -132.5t88.5 -54.5t88 54.5t32 132.5v123h75v-123q0 -78 32 -132.5t88 -54.5t88.5 54.5t32.5 132.5
q0 65 -16.5 117.5t-57.5 89.5l55 46q47 -39 72 -105t25 -148q0 -70 -23.5 -128t-66.5 -92t-99 -34q-66 0 -108 43z" />
    <glyph glyph-name="iotadieresis" unicode="&#x3ca;" horiz-adv-x="239" 
d="M75 483h75v-370q0 -27 12 -42.5t35 -15.5q11 0 19 2l6 -65q-22 -4 -40 -4q-53 0 -80 29t-27 84v382zM-16 571q-14 14 -14 33t14 32.5t33 13.5t32.5 -13.5t13.5 -32.5t-13.5 -33t-32.5 -14t-33 14zM190 571q-14 14 -14 33t14 32.5t33 13.5t33 -13.5t14 -32.5t-14 -33
t-33 -14t-33 14z" />
    <glyph glyph-name="upsilondieresis" unicode="&#x3cb;" horiz-adv-x="562" 
d="M75 483h75v-270q0 -74 33 -116t92 -42q75 0 118 55.5t43 139.5q0 126 -73 211l67 34q41 -51 63 -114t22 -131q0 -75 -29.5 -134.5t-84 -93.5t-126.5 -34q-98 0 -149 60t-51 164v271zM144 571q-14 14 -14 33t14 32.5t33 13.5t32.5 -13.5t13.5 -32.5t-13.5 -33t-32.5 -14
t-33 14zM350 571q-14 14 -14 33t14 32.5t33 13.5t33 -13.5t14 -32.5t-14 -33t-33 -14t-33 14z" />
    <glyph glyph-name="omicrontonos" unicode="&#x3cc;" 
d="M160 22q-54 34 -83.5 92t-29.5 128t29.5 128t83.5 91.5t126 33.5t126 -33.5t83.5 -91.5t29.5 -128t-29.5 -128t-83.5 -92t-126 -34t-126 34zM372 80.5q36 25.5 55 68.5t19 93t-19 92.5t-55 68t-86 25.5t-86.5 -25.5t-55.5 -68t-19 -92.5t19 -93t55.5 -68.5t86.5 -25.5
t86 25.5zM276 765h76l-58 -200h-37z" />
    <glyph glyph-name="upsilontonos" unicode="&#x3cd;" horiz-adv-x="562" 
d="M75 483h75v-270q0 -74 33 -116t92 -42q75 0 118 55.5t43 139.5q0 126 -73 211l67 34q41 -51 63 -114t22 -131q0 -75 -29.5 -134.5t-84 -93.5t-126.5 -34q-98 0 -149 60t-51 164v271zM272 765h76l-58 -200h-37z" />
    <glyph glyph-name="omegatonos" unicode="&#x3ce;" horiz-adv-x="808" 
d="M463 31q-42 43 -59 104q-18 -62 -60 -104.5t-107 -42.5q-57 0 -100 34t-66.5 92t-23.5 128q0 81 25.5 147.5t72.5 105.5l54 -46q-74 -69 -74 -207q0 -78 32.5 -132.5t88.5 -54.5t88 54.5t32 132.5v123h75v-123q0 -78 32 -132.5t88 -54.5t88.5 54.5t32.5 132.5
q0 65 -16.5 117.5t-57.5 89.5l55 46q47 -39 72 -105t25 -148q0 -70 -23.5 -128t-66.5 -92t-99 -34q-66 0 -108 43zM394 765h76l-58 -200h-37z" />
    <glyph glyph-name="uni0401" unicode="&#x401;" horiz-adv-x="569" 
d="M78 667h437v-74h-354v-215h347v-74h-347v-230h354v-74h-437v667zM160 738q-14 14 -14 33t14 32.5t33 13.5t32.5 -13.5t13.5 -32.5t-13.5 -33t-32.5 -14t-33 14zM366 738q-14 14 -14 33t14 32.5t33 13.5t33 -13.5t14 -32.5t-14 -33t-33 -14t-33 14z" />
    <glyph glyph-name="uni0402" unicode="&#x402;" horiz-adv-x="769" 
d="M599 99q36 37 36 101v8q0 72 -39.5 109.5t-115.5 37.5q-83 0 -154 -23v-332h-83v593h-211v74h506v-74h-212v-187q84 23 161 23q113 0 172 -61t59 -160v-8q0 -104 -61 -158t-156 -54v74q62 0 98 37z" />
    <glyph glyph-name="uni0403" unicode="&#x403;" horiz-adv-x="550" 
d="M78 667h437v-74h-354v-593h-83v667zM228 723l148 144h78l-169 -144h-57z" />
    <glyph glyph-name="uni0404" unicode="&#x404;" horiz-adv-x="676" 
d="M499 88.5q49 26.5 78 70.5l71 -39q-97 -132 -254 -132q-96 0 -174 43.5t-123.5 122.5t-45.5 179t45.5 179t123.5 122.5t174 43.5q84 0 147 -35.5t106 -96.5l-70 -39q-29 43 -78 70t-105 27q-65 0 -119.5 -28.5t-89.5 -79.5t-44 -118h364v-74h-366q6 -70 41 -125.5t91 -86
t123 -30.5q56 0 105 26.5z" />
    <glyph glyph-name="uni0405" unicode="&#x405;" horiz-adv-x="586" 
d="M87 157q37 -41 91 -68t119 -27q81 0 119 34.5t38 80.5q0 37 -22.5 60.5t-55.5 36.5t-91 29q-74 19 -118.5 37t-76 54.5t-31.5 97.5q0 54 30 96t82 65.5t117 23.5q149 0 237 -93l-50 -61q-36 40 -86 60t-107 20q-60 0 -98.5 -29.5t-38.5 -76.5q0 -31 21.5 -51.5t52.5 -32
t88 -26.5q74 -20 120.5 -39.5t79.5 -59t33 -104.5q0 -52 -25 -96.5t-80.5 -72t-140.5 -27.5q-83 0 -147.5 28.5t-108.5 77.5z" />
    <glyph glyph-name="uni0406" unicode="&#x406;" horiz-adv-x="239" 
d="M78 667h83v-667h-83v667z" />
    <glyph glyph-name="uni0407" unicode="&#x407;" horiz-adv-x="239" 
d="M78 667h83v-667h-83v667zM-17 738q-14 14 -14 33t14 32.5t33 13.5t32.5 -13.5t13.5 -32.5t-13.5 -33t-32.5 -14t-33 14zM189 738q-14 14 -14 33t14 32.5t33 13.5t33 -13.5t14 -32.5t-14 -33t-33 -14t-33 14z" />
    <glyph glyph-name="uni0408" unicode="&#x408;" horiz-adv-x="475" 
d="M54 128q55 -66 126 -66q61 0 97.5 38.5t36.5 101.5v465h83v-466q0 -104 -59 -158.5t-153 -54.5q-54 0 -97 18.5t-77 58.5z" />
    <glyph glyph-name="uni0409" unicode="&#x409;" horiz-adv-x="1060" 
d="M103 83.5q28 21.5 48 79.5t34 169l41 335h408v-265h185q64 0 111.5 -27t72.5 -73t25 -101t-24.5 -101t-72 -73t-112.5 -27h-268v593h-251l-33 -267q-17 -141 -49 -214.5t-76 -98.5t-110 -25v74q43 0 71 21.5zM634 74h175q59 0 96 35.5t37 91.5t-37 91.5t-96 35.5h-175
v-254z" />
    <glyph glyph-name="uni040A" unicode="&#x40a;" horiz-adv-x="1060" 
d="M161 667v-287h390v287h83v-287h197q61 0 105.5 -25.5t68 -69t23.5 -95.5t-23.5 -95.5t-68 -69t-105.5 -25.5h-280v306h-390v-306h-83v667h83zM908.5 106q33.5 32 33.5 84q0 51 -33.5 83.5t-87.5 32.5h-187v-232h187q54 0 87.5 32z" />
    <glyph glyph-name="uni040B" unicode="&#x40b;" horiz-adv-x="785" 
d="M595.5 316q-39.5 39 -115.5 39q-83 0 -154 -23v-332h-83v593h-211v74h506v-74h-212v-187q84 23 161 23q114 0 172.5 -61.5t58.5 -167.5v-200h-83v201q0 76 -39.5 115z" />
    <glyph glyph-name="uni040C" unicode="&#x40c;" horiz-adv-x="601" 
d="M228 300l-67 -76v-224h-83v667h83v-345l295 345h104l-278 -317l302 -350h-103zM247 723l148 144h78l-169 -144h-57z" />
    <glyph glyph-name="uni040E" unicode="&#x40e;" horiz-adv-x="626" 
d="M617 667l-291 -549q-35 -66 -75 -98t-106 -32q-41 0 -76 15t-54 38l35 66q43 -45 91 -45q38 0 60.5 20t51.5 75l13 24l-257 486h95l209 -413l209 413h95zM215 728.5q-46 23.5 -77 64.5l37 32q25 -34 60.5 -53t78.5 -19t78.5 19t59.5 53l37 -32q-31 -41 -76.5 -64.5
t-98.5 -23.5t-99 23.5z" />
    <glyph glyph-name="uni040F" unicode="&#x40f;" horiz-adv-x="712" 
d="M634 0h-236v-127h-83v127h-237v667h83v-593h390v593h83v-667z" />
    <glyph glyph-name="uni0410" unicode="&#x410;" horiz-adv-x="658" 
d="M495 148h-332l-59 -148h-95l268 667h103l269 -667h-95zM187 222h283l-141 359z" />
    <glyph glyph-name="uni0411" unicode="&#x411;" horiz-adv-x="587" 
d="M511 593h-350v-191h185q64 0 111.5 -27t72.5 -73t25 -101t-24.5 -101t-72 -73t-112.5 -27h-268v667h433v-74zM161 74h175q59 0 96 35.5t37 91.5t-37 91.5t-96 35.5h-175v-254z" />
    <glyph glyph-name="uni0412" unicode="&#x412;" horiz-adv-x="629" 
d="M78 667h297q86 0 136.5 -47t50.5 -123q0 -60 -34 -101.5t-83 -51.5q35 -5 65 -29t47.5 -60t17.5 -75q0 -81 -51.5 -130.5t-141.5 -49.5h-304v667zM361 378q55 0 85 30t30 77t-30.5 77.5t-84.5 30.5h-200v-215h200zM365 74q58 0 91 31t33 84q0 49 -32.5 82t-91.5 33h-204
v-230h204z" />
    <glyph glyph-name="uni0413" unicode="&#x413;" horiz-adv-x="550" 
d="M78 667h437v-74h-354v-593h-83v667z" />
    <glyph glyph-name="uni0414" unicode="&#x414;" horiz-adv-x="723" 
d="M103.5 90q27.5 20 47.5 76t34 166l41 335h408v-593h61v-197h-83v123h-497v-123h-83v190q44 3 71.5 23zM551 74v519h-251l-33 -267q-12 -102 -38 -162.5t-64 -89.5h386z" />
    <glyph glyph-name="uni0415" unicode="&#x415;" horiz-adv-x="569" 
d="M78 667h437v-74h-354v-215h347v-74h-347v-230h354v-74h-437v667z" />
    <glyph glyph-name="uni0416" unicode="&#x416;" horiz-adv-x="909" 
d="M893 0h-104l-253 300l-40 -46v-254h-83v254l-40 46l-253 -300h-103l302 350l-278 317h104l268 -314v314h83v-314l269 314h104l-279 -317z" />
    <glyph glyph-name="uni0417" unicode="&#x417;" horiz-adv-x="584" 
d="M78 151q30 -40 84.5 -64.5t115.5 -24.5q78 0 123 33.5t45 91.5q0 60 -46.5 89t-126.5 29h-136v74h136q71 0 116.5 27.5t45.5 82.5q0 54 -45.5 84t-114.5 30q-113 0 -189 -81l-46 52q40 46 102.5 74.5t138.5 28.5q66 0 120.5 -21.5t86.5 -61.5t32 -95q0 -66 -44.5 -105.5
t-99.5 -49.5q34 -3 69.5 -22.5t60 -55.5t24.5 -86q0 -55 -31.5 -99t-88 -68.5t-130.5 -24.5q-84 0 -151 31t-100 79z" />
    <glyph glyph-name="uni0418" unicode="&#x418;" horiz-adv-x="708" 
d="M161 667v-521l384 521h85v-667h-83v532l-389 -532h-80v667h83z" />
    <glyph glyph-name="uni0419" unicode="&#x419;" horiz-adv-x="708" 
d="M161 667v-521l384 521h85v-667h-83v532l-389 -532h-80v667h83zM255 728.5q-46 23.5 -77 64.5l37 32q25 -34 60.5 -53t78.5 -19t78.5 19t59.5 53l37 -32q-31 -41 -76.5 -64.5t-98.5 -23.5t-99 23.5z" />
    <glyph glyph-name="uni041A" unicode="&#x41a;" horiz-adv-x="601" 
d="M228 300l-67 -76v-224h-83v667h83v-345l295 345h104l-278 -317l302 -350h-103z" />
    <glyph glyph-name="uni041B" unicode="&#x41b;" horiz-adv-x="712" 
d="M103 83.5q28 21.5 48 79.5t34 169l41 335h408v-667h-83v593h-251l-33 -267q-17 -141 -49 -214.5t-76 -98.5t-110 -25v74q43 0 71 21.5z" />
    <glyph glyph-name="uni041C" unicode="&#x41c;" horiz-adv-x="809" 
d="M648 549l-227 -549h-34l-226 549v-549h-83v667h119l207 -502l208 502h119v-667h-83v549z" />
    <glyph glyph-name="uni041D" unicode="&#x41d;" horiz-adv-x="712" 
d="M551 306h-390v-306h-83v667h83v-287h390v287h83v-667h-83v306z" />
    <glyph glyph-name="uni041E" unicode="&#x41e;" horiz-adv-x="765" 
d="M92.5 509.5q41.5 78.5 117 123.5t172.5 45t172 -45t117 -123.5t42 -176.5t-42 -176.5t-117 -123.5t-172 -45t-172.5 45t-117 123.5t-41.5 176.5t41.5 176.5zM596.5 472.5q-30.5 61.5 -86 96.5t-128.5 35q-74 0 -129.5 -35t-85.5 -96.5t-30 -139.5q0 -77 30 -139t86 -97
t129 -35t128.5 35t86 97t30.5 139q0 78 -30.5 139.5z" />
    <glyph glyph-name="uni041F" unicode="&#x41f;" horiz-adv-x="712" 
d="M551 593h-390v-593h-83v667h556v-667h-83v593z" />
    <glyph glyph-name="uni0420" unicode="&#x420;" horiz-adv-x="587" 
d="M78 667h268q65 0 112.5 -27t72 -73t24.5 -101t-25 -101t-72.5 -73t-111.5 -27h-185v-265h-83v667zM432 557.5q-37 35.5 -96 35.5h-175v-254h175q59 0 96 35.5t37 91.5t-37 91.5z" />
    <glyph glyph-name="uni0421" unicode="&#x421;" horiz-adv-x="676" 
d="M220 31.5q-78 43.5 -123.5 122.5t-45.5 179t45.5 179t123.5 122.5t174 43.5q84 0 147 -35.5t106 -96.5l-70 -39q-29 43 -78 70t-105 27q-72 0 -131 -34.5t-92.5 -96.5t-33.5 -140t33.5 -139.5t92.5 -96.5t131 -35q56 0 105 26.5t78 70.5l71 -39q-97 -132 -254 -132
q-96 0 -174 43.5z" />
    <glyph glyph-name="uni0422" unicode="&#x422;" horiz-adv-x="570" 
d="M243 593h-211v74h506v-74h-212v-593h-83v593z" />
    <glyph glyph-name="uni0423" unicode="&#x423;" horiz-adv-x="626" 
d="M617 667l-291 -549q-35 -66 -75 -98t-106 -32q-41 0 -76 15t-54 38l35 66q43 -45 91 -45q38 0 60.5 20t51.5 75l13 24l-257 486h95l209 -413l209 413h95z" />
    <glyph glyph-name="uni0424" unicode="&#x424;" horiz-adv-x="806" 
d="M717.5 199.5q-37.5 -58.5 -107.5 -93.5t-166 -41v-65h-83v65q-95 6 -165 41.5t-107.5 93.5t-37.5 133q0 74 37.5 132.5t107.5 94t165 41.5v66h83v-66q95 -6 165.5 -41.5t108 -93.5t37.5 -133t-37.5 -133.5zM196.5 200.5q59.5 -52.5 164.5 -60.5v386q-106 -8 -165 -60
t-59 -133q0 -80 59.5 -132.5zM609 200.5q60 52.5 60 132.5q0 81 -60 133t-165 60v-386q105 8 165 60.5z" />
    <glyph glyph-name="uni0425" unicode="&#x425;" horiz-adv-x="652" 
d="M326 284l-213 -284h-101l260 342l-245 325h101l198 -267l197 267h101l-244 -324l259 -343h-100z" />
    <glyph glyph-name="uni0426" unicode="&#x426;" horiz-adv-x="723" 
d="M78 0v667h83v-593h390v593h83v-593h61v-197h-83v123h-534z" />
    <glyph glyph-name="uni0427" unicode="&#x427;" horiz-adv-x="611" 
d="M180.5 378q39.5 -39 115.5 -39q83 0 154 23v305h83v-667h-83v288q-84 -23 -161 -23q-114 0 -172.5 61.5t-58.5 167.5v173h83v-174q0 -76 39.5 -115z" />
    <glyph glyph-name="uni0428" unicode="&#x428;" horiz-adv-x="958" 
d="M880 0h-802v667h83v-593h277v593h83v-593h276v593h83v-667z" />
    <glyph glyph-name="uni0429" unicode="&#x429;" horiz-adv-x="975" 
d="M886 74h60v-197h-83v123h-780v667h83v-593h277v593h83v-593h277v593h83v-593z" />
    <glyph glyph-name="uni042A" unicode="&#x42a;" horiz-adv-x="752" 
d="M243 593h-211v74h294v-265h185q64 0 111.5 -27t72.5 -73t25 -101t-24.5 -101t-72 -73t-112.5 -27h-268v593zM326 74h175q59 0 96 35.5t37 91.5t-37 91.5t-96 35.5h-175v-254z" />
    <glyph glyph-name="uni042B" unicode="&#x42b;" horiz-adv-x="788" 
d="M161 402h185q64 0 111.5 -27t72.5 -73t25 -101t-24.5 -101t-72 -73t-112.5 -27h-268v667h83v-265zM627 667h83v-667h-83v667zM161 74h175q59 0 96 35.5t37 91.5t-37 91.5t-96 35.5h-175v-254z" />
    <glyph glyph-name="uni042C" unicode="&#x42c;" horiz-adv-x="587" 
d="M161 402h185q64 0 111.5 -27t72.5 -73t25 -101t-24.5 -101t-72 -73t-112.5 -27h-268v667h83v-265zM161 74h175q59 0 96 35.5t37 91.5t-37 91.5t-96 35.5h-175v-254z" />
    <glyph glyph-name="uni042D" unicode="&#x42d;" horiz-adv-x="676" 
d="M456 634.5q78 -43.5 123.5 -122.5t45.5 -179t-45.5 -179t-123.5 -122.5t-174 -43.5q-157 0 -254 132l71 39q29 -44 78 -70.5t105 -26.5q67 0 123 30.5t91 86t41 125.5h-366v74h364q-9 67 -44 118t-89.5 79.5t-119.5 28.5q-56 0 -105 -27t-78 -70l-70 39q43 61 106 96.5
t147 35.5q96 0 174 -43.5z" />
    <glyph glyph-name="uni042E" unicode="&#x42e;" horiz-adv-x="992" 
d="M781.5 633q75.5 -45 117.5 -123.5t42 -176.5t-42 -176.5t-117.5 -123.5t-172.5 -45q-92 0 -165 41t-116 113.5t-49 163.5h-118v-306h-83v667h83v-287h120q9 86 53 153.5t115 106t160 38.5q97 0 172.5 -45zM738 97q56 35 86.5 97t30.5 139q0 78 -30.5 139.5t-86.5 96.5
t-129 35q-74 0 -129.5 -35t-85.5 -96.5t-30 -139.5q0 -77 30 -139t86 -97t129 -35t129 35z" />
    <glyph glyph-name="uni042F" unicode="&#x42f;" horiz-adv-x="608" 
d="M227 272q-47 4 -86.5 28t-63.5 66t-24 100q0 60 26.5 106t74.5 70.5t109 24.5h268v-667h-83v265h-134l-170 -265h-97zM448 593h-176q-59 0 -96 -35.5t-37 -91.5t37.5 -92t95.5 -36h176v255z" />
    <glyph glyph-name="uni0430" unicode="&#x430;" horiz-adv-x="527" 
d="M377 55q-61 -67 -160 -67q-43 0 -81.5 18.5t-63 55t-24.5 86.5q0 51 24.5 87t63 54t81.5 18q103 0 160 -66v87q0 48 -34 75t-88 27q-44 0 -80 -16.5t-68 -50.5l-35 52q39 41 86.5 60.5t106.5 19.5q83 0 135 -40t52 -123v-332h-75v55zM377 193q-21 29 -56.5 44.5
t-76.5 15.5q-52 0 -85.5 -29.5t-33.5 -76.5q0 -46 33.5 -75.5t85.5 -29.5q41 0 76.5 15.5t56.5 44.5v91z" />
    <glyph glyph-name="uni0431" unicode="&#x431;" horiz-adv-x="577" 
d="M109 518.5q62 82.5 191 99.5q77 12 106.5 23t29.5 26h73q0 -53 -53.5 -76.5t-136.5 -34.5q-100 -14 -144.5 -55t-58.5 -109q29 45 75.5 74t106.5 29q67 0 118.5 -34t79.5 -91.5t28 -126.5q0 -70 -29 -128.5t-83 -92.5t-126 -34q-73 0 -127 35.5t-83 98t-29 142.5
q0 172 62 254.5zM427 335q-19 42 -55 67.5t-86 25.5t-86.5 -25.5t-55.5 -68t-19 -91.5q0 -51 19 -94t55.5 -68.5t86.5 -25.5t86 25.5t55 68.5t19 94q0 50 -19 92z" />
    <glyph glyph-name="uni0432" unicode="&#x432;" horiz-adv-x="554" 
d="M75 483h266q63 0 99.5 -34t36.5 -90q0 -41 -22.5 -70.5t-55.5 -39.5q37 -9 62.5 -43t25.5 -75q0 -59 -37.5 -95t-103.5 -36h-271v483zM381 398.5q-19 18.5 -53 18.5h-178v-136h178q34 0 53 18.5t19 48.5q0 32 -19 50.5zM388 193q-21 22 -57 22h-181v-149h181q36 0 57 20
t21 54q0 31 -21 53z" />
    <glyph glyph-name="uni0433" unicode="&#x433;" horiz-adv-x="436" 
d="M150 417v-417h-75v483h338v-66h-263z" />
    <glyph glyph-name="uni0434" unicode="&#x434;" horiz-adv-x="561" 
d="M58.5 82.5q16.5 16.5 29.5 54.5t22 108l31 238h336v-417h56v-189h-75v123h-365v-123h-75v185q24 4 40.5 20.5zM159 128q-17 -41 -44 -62h287v351h-195l-22 -181q-9 -67 -26 -108z" />
    <glyph glyph-name="uni0435" unicode="&#x435;" horiz-adv-x="563" 
d="M78 369q31 58 85 92t122 34q71 0 123.5 -34t80.5 -93t28 -132v-19h-391q5 -71 52 -119t122 -48q42 0 81.5 16t67.5 45l36 -49q-74 -74 -192 -74q-71 0 -127 32t-87.5 90t-31.5 132q0 69 31 127zM200 409q-35 -24 -53.5 -61t-20.5 -76h317q-1 39 -18.5 76t-53 61t-87.5 24
q-49 0 -84 -24z" />
    <glyph glyph-name="uni0436" unicode="&#x436;" horiz-adv-x="711" 
d="M697 0h-96l-174 217l-34 -34v-183h-75v183l-34 34l-174 -217h-96l215 264l-214 219h95l208 -211v211h75v-211l208 211h95l-215 -219z" />
    <glyph glyph-name="uni0437" unicode="&#x437;" horiz-adv-x="514" 
d="M65 115q33 -32 79.5 -48.5t101.5 -16.5q65 0 103.5 23t38.5 61q0 42 -41 61t-111 19h-108v61h108q63 0 103 20.5t40 60.5q0 34 -40 55.5t-101 21.5q-101 0 -162 -62l-39 46q75 77 202 77q98 0 158 -34.5t60 -94.5q0 -50 -40.5 -81t-89.5 -37q31 -2 63.5 -15.5t54.5 -39.5
t22 -63q0 -41 -26.5 -73t-76.5 -50t-118 -18q-70 0 -125.5 21t-92.5 58z" />
    <glyph glyph-name="uni0438" unicode="&#x438;" horiz-adv-x="552" 
d="M75 483h75v-369l253 369h74v-483h-75v376l-255 -376h-72v483z" />
    <glyph glyph-name="uni0439" unicode="&#x439;" horiz-adv-x="552" 
d="M75 483h75v-369l253 369h74v-483h-75v376l-255 -376h-72v483zM177 561.5q-46 23.5 -77 64.5l37 32q25 -34 60.5 -53t78.5 -19t78.5 19t59.5 53l37 -32q-31 -41 -76.5 -64.5t-98.5 -23.5t-99 23.5z" />
    <glyph glyph-name="uni043A" unicode="&#x43a;" horiz-adv-x="514" 
d="M230 217l-80 -79v-138h-75v483h75v-257l254 257h95l-214 -219l215 -264h-96z" />
    <glyph glyph-name="uni043B" unicode="&#x43b;" horiz-adv-x="552" 
d="M74 95q22 45 36 150l31 238h336v-483h-75v417h-195l-22 -181q-16 -133 -56 -190.5t-111 -57.5v62q34 0 56 45z" />
    <glyph glyph-name="uni043C" unicode="&#x43c;" horiz-adv-x="643" 
d="M493 379l-157 -379h-28l-158 379v-379h-75v483h99l148 -358l146 358h100v-483h-75v379z" />
    <glyph glyph-name="uni043D" unicode="&#x43d;" horiz-adv-x="552" 
d="M75 483h75v-201h252v201h75v-483h-75v216h-252v-216h-75v483z" />
    <glyph glyph-name="uni043E" unicode="&#x43e;" 
d="M160 22q-54 34 -83.5 92t-29.5 128t29.5 128t83.5 91.5t126 33.5t126 -33.5t83.5 -91.5t29.5 -128t-29.5 -128t-83.5 -92t-126 -34t-126 34zM372 80.5q36 25.5 55 68.5t19 93t-19 92.5t-55 68t-86 25.5t-86.5 -25.5t-55.5 -68t-19 -92.5t19 -93t55.5 -68.5t86.5 -25.5
t86 25.5z" />
    <glyph glyph-name="uni043F" unicode="&#x43f;" horiz-adv-x="552" 
d="M402 417h-252v-417h-75v483h402v-483h-75v417z" />
    <glyph glyph-name="uni0440" unicode="&#x440;" 
d="M75 -184v667h75v-72q27 38 70 61t93 23q63 0 112 -30.5t76 -88t27 -134.5t-27 -134.5t-76 -88.5t-112 -31q-49 0 -91.5 22t-71.5 63v-257h-75zM407 376q-42 52 -113 52q-43 0 -83.5 -22.5t-60.5 -54.5v-218q20 -33 60.5 -55.5t83.5 -22.5q71 0 113 52.5t42 134.5t-42 134
z" />
    <glyph glyph-name="uni0441" unicode="&#x441;" horiz-adv-x="495" 
d="M77.5 371q30.5 58 85 91t125.5 33q62 0 104 -22t73 -62l-50 -46q-46 63 -123 63q-76 0 -121.5 -52t-45.5 -134t45.5 -134.5t121.5 -52.5t123 63l50 -46q-31 -40 -73 -62t-104 -22q-71 0 -125.5 33t-85 91t-30.5 130q0 71 30.5 129z" />
    <glyph glyph-name="uni0442" unicode="&#x442;" horiz-adv-x="402" 
d="M163 417h-140v66h356v-66h-141v-417h-75v417z" />
    <glyph glyph-name="uni0443" unicode="&#x443;" horiz-adv-x="490" 
d="M101 -129q26 0 43 11t29 40l32 73l-202 488h81l161 -396l160 396h82l-242 -581q-21 -51 -56.5 -74t-85.5 -24q-30 0 -55 7l12 68q18 -8 41 -8z" />
    <glyph glyph-name="uni0444" unicode="&#x444;" horiz-adv-x="798" 
d="M362 667h75v-256q22 38 56.5 61t74.5 23q51 0 90.5 -30.5t61.5 -88t22 -134.5t-22 -134.5t-61.5 -88.5t-90.5 -31q-40 0 -74 22t-57 63v-257h-75v256q-22 -38 -57 -61t-75 -23q-51 0 -90.5 30.5t-61.5 88t-22 134.5t22 134.5t61.5 88.5t90.5 31q40 0 74 -22t58 -63v257z
M164 107q32 -52 87 -52q34 0 65 22t46 55v218q-16 33 -47 55.5t-64 22.5q-55 0 -87 -52.5t-32 -134.5t32 -134zM634 376q-32 52 -87 52q-33 0 -64 -22.5t-46 -54.5v-218q16 -33 46.5 -55.5t63.5 -22.5q55 0 87 52.5t32 134.5t-32 134z" />
    <glyph glyph-name="uni0445" unicode="&#x445;" horiz-adv-x="486" 
d="M243 198l-145 -198h-86l185 248l-175 235h87l134 -184l134 184h87l-175 -235l186 -248h-87z" />
    <glyph glyph-name="uni0446" unicode="&#x446;" horiz-adv-x="561" 
d="M75 0v483h75v-417h252v417h75v-417h56v-189h-75v123h-383z" />
    <glyph glyph-name="uni0447" unicode="&#x447;" horiz-adv-x="541" 
d="M140 347q0 -65 30 -90t93 -25q37 0 71.5 7t56.5 19v225h75v-483h-75v197q-28 -14 -67.5 -23t-79.5 -9q-94 0 -136.5 38t-42.5 121v159h75v-136z" />
    <glyph glyph-name="uni0448" unicode="&#x448;" horiz-adv-x="783" 
d="M708 0h-633v483h75v-417h204v417h75v-417h204v417h75v-483z" />
    <glyph glyph-name="uni0449" unicode="&#x449;" horiz-adv-x="798" 
d="M708 66h62v-189h-75v123h-620v483h75v-417h204v417h75v-417h204v417h75v-417z" />
    <glyph glyph-name="uni044A" unicode="&#x44a;" horiz-adv-x="610" 
d="M163 417h-140v66h215v-187h181q72 0 112 -42.5t40 -105.5t-40.5 -105.5t-111.5 -42.5h-256v417zM238 66h173q40 0 61.5 22.5t21.5 59.5t-21.5 59.5t-61.5 22.5h-173v-164z" />
    <glyph glyph-name="uni044B" unicode="&#x44b;" horiz-adv-x="712" 
d="M150 296h181q72 0 112 -42.5t40 -105.5t-40.5 -105.5t-111.5 -42.5h-256v483h75v-187zM562 483h75v-483h-75v483zM150 66h173q40 0 61.5 22.5t21.5 59.5t-21.5 59.5t-61.5 22.5h-173v-164z" />
    <glyph glyph-name="uni044C" unicode="&#x44c;" horiz-adv-x="522" 
d="M150 296h181q72 0 112 -42.5t40 -105.5t-40.5 -105.5t-111.5 -42.5h-256v483h75v-187zM150 66h173q40 0 61.5 22.5t21.5 59.5t-21.5 59.5t-61.5 22.5h-173v-164z" />
    <glyph glyph-name="uni044D" unicode="&#x44d;" horiz-adv-x="495" 
d="M333 462q55 -33 85.5 -91t30.5 -129q0 -72 -30.5 -130t-85.5 -91t-126 -33q-62 0 -104 22t-73 62l48 44q49 -66 126 -66q69 0 112.5 44.5t51.5 117.5h-243v65h242q-8 71 -52 113.5t-111 42.5q-78 0 -126 -66l-48 44q31 40 73 62t104 22q71 0 126 -33z" />
    <glyph glyph-name="uni044E" unicode="&#x44e;" horiz-adv-x="767" 
d="M606.5 461.5q54.5 -33.5 84 -91.5t29.5 -128t-29.5 -128t-84 -92t-126.5 -34q-66 0 -118 30t-82.5 82t-36.5 116h-93v-216h-75v483h75v-201h94q9 61 40 109.5t81.5 76t114.5 27.5q72 0 126.5 -33.5zM566.5 80.5q36.5 25.5 55.5 68t19 93.5q0 50 -19 92.5t-55.5 68
t-86.5 25.5q-49 0 -85.5 -25.5t-55.5 -68t-19 -92.5t19 -93t55.5 -68.5t85.5 -25.5q50 0 86.5 25.5z" />
    <glyph glyph-name="uni044F" unicode="&#x44f;" horiz-adv-x="547" 
d="M188 190q-55 7 -89.5 46t-34.5 99q0 64 41 106t112 42h255v-483h-75v187h-132l-118 -187h-88zM397 417h-172q-39 0 -61.5 -22.5t-22.5 -59.5t22 -59.5t62 -22.5h172v164z" />
    <glyph glyph-name="uni0451" unicode="&#x451;" horiz-adv-x="563" 
d="M78 369q31 58 85 92t122 34q71 0 123.5 -34t80.5 -93t28 -132v-19h-391q5 -71 52 -119t122 -48q42 0 81.5 16t67.5 45l36 -49q-74 -74 -192 -74q-71 0 -127 32t-87.5 90t-31.5 132q0 69 31 127zM200 409q-35 -24 -53.5 -61t-20.5 -76h317q-1 39 -18.5 76t-53 61t-87.5 24
q-49 0 -84 -24zM149 571q-14 14 -14 33t14 32.5t33 13.5t32.5 -13.5t13.5 -32.5t-13.5 -33t-32.5 -14t-33 14zM355 571q-14 14 -14 33t14 32.5t33 13.5t33 -13.5t14 -32.5t-14 -33t-33 -14t-33 14z" />
    <glyph glyph-name="uni0452" unicode="&#x452;" horiz-adv-x="554" 
d="M292 -126q13 -5 36 -5q35 0 55.5 20.5t20.5 63.5v363q0 61 -28.5 86.5t-80.5 25.5q-42 0 -81.5 -22t-61.5 -53v-353h-75v535h-68v48h68v84h75v-84h157v-48h-157v-122q28 33 75 57.5t97 24.5q155 0 155 -156v-386q0 -71 -37.5 -110t-105.5 -39q-33 0 -54 7z" />
    <glyph glyph-name="uni0453" unicode="&#x453;" horiz-adv-x="436" 
d="M150 417v-417h-75v483h338v-66h-263zM188 556l148 144h78l-169 -144h-57z" />
    <glyph glyph-name="uni0454" unicode="&#x454;" horiz-adv-x="495" 
d="M417 116l48 -44q-31 -40 -73 -62t-104 -22q-71 0 -125.5 33t-85 91t-30.5 130q0 71 30.5 129t85 91t125.5 33q62 0 104 -22t73 -62l-48 -44q-48 66 -125 66q-68 0 -111.5 -42.5t-52.5 -113.5h242v-65h-242q8 -73 51.5 -117.5t112.5 -44.5q76 0 125 66z" />
    <glyph glyph-name="uni0455" unicode="&#x455;" horiz-adv-x="465" 
d="M72 118q25 -29 68.5 -49t90.5 -20q54 0 84 23t30 60q0 25 -16.5 40.5t-40.5 23.5t-67 19q-56 13 -90.5 26t-59.5 41t-25 74q0 38 21.5 69.5t62 50.5t96.5 19q109 0 179 -70l-35 -52q-23 27 -61 44t-83 17q-49 0 -78 -21.5t-29 -54.5q0 -31 28.5 -45t89.5 -29
q56 -13 92.5 -27t62.5 -43.5t26 -79.5q0 -64 -50 -105t-140 -41q-123 0 -195 76z" />
    <glyph glyph-name="uni0456" unicode="&#x456;" horiz-adv-x="225" 
d="M77 566.5q-15 14.5 -15 35.5t15 36t35 15q21 0 36 -15t15 -36t-15 -35.5t-36 -14.5q-20 0 -35 14.5zM75 483h75v-483h-75v483z" />
    <glyph glyph-name="uni0457" unicode="&#x457;" horiz-adv-x="225" 
d="M75 483h75v-483h-75v483zM-23 571q-14 14 -14 33t14 32.5t33 13.5t32.5 -13.5t13.5 -32.5t-13.5 -33t-32.5 -14t-33 14zM183 571q-14 14 -14 33t14 32.5t33 13.5t33 -13.5t14 -32.5t-14 -33t-33 -14t-33 14z" />
    <glyph glyph-name="uni0458" unicode="&#x458;" horiz-adv-x="225" 
d="M77 566.5q-15 14.5 -15 35.5t15 36t35 15q21 0 36 -15t15 -36t-15 -35.5t-36 -14.5q-20 0 -35 14.5zM150 -47q0 -71 -37 -110t-105 -39q-32 0 -54 7l10 63q12 -5 36 -5q75 0 75 84v530h75v-530z" />
    <glyph glyph-name="uni0459" unicode="&#x459;" horiz-adv-x="849" 
d="M74 95q22 45 36 150l31 238h336v-187h180q72 0 112.5 -42.5t40.5 -105.5t-40.5 -105.5t-112.5 -42.5h-255v417h-195l-22 -181q-16 -133 -56 -190.5t-111 -57.5v62q34 0 56 45zM477 66h173q40 0 61.5 22.5t21.5 59.5q0 36 -22 59t-61 23h-173v-164z" />
    <glyph glyph-name="uni045A" unicode="&#x45a;" horiz-adv-x="849" 
d="M75 483h75v-201h252v201h75v-201h188q68 0 106.5 -40.5t38.5 -101.5q0 -59 -38.5 -99.5t-106.5 -40.5h-263v216h-252v-216h-75v483zM477 66h180q36 0 56 20.5t20 53.5q0 34 -20 55t-56 21h-180v-150z" />
    <glyph glyph-name="uni045B" unicode="&#x45b;" horiz-adv-x="554" 
d="M479 341v-341h-75v318q0 60 -28 85t-81 25q-41 0 -80.5 -22t-62.5 -53v-353h-75v535h-68v48h68v84h75v-84h157v-48h-157v-122q28 33 75 57.5t98 24.5q154 0 154 -154z" />
    <glyph glyph-name="uni045C" unicode="&#x45c;" horiz-adv-x="514" 
d="M230 217l-80 -79v-138h-75v483h75v-257l254 257h95l-214 -219l215 -264h-96zM202 556l148 144h78l-169 -144h-57z" />
    <glyph glyph-name="uni045E" unicode="&#x45e;" horiz-adv-x="490" 
d="M101 -129q26 0 43 11t29 40l32 73l-202 488h81l161 -396l160 396h82l-242 -581q-21 -51 -56.5 -74t-85.5 -24q-30 0 -55 7l12 68q18 -8 41 -8zM147 561.5q-46 23.5 -77 64.5l37 32q25 -34 60.5 -53t78.5 -19t78.5 19t59.5 53l37 -32q-31 -41 -76.5 -64.5t-98.5 -23.5
t-99 23.5z" />
    <glyph glyph-name="uni045F" unicode="&#x45f;" horiz-adv-x="552" 
d="M477 0h-163v-126h-75v126h-164v483h75v-417h252v417h75v-483z" />
    <glyph glyph-name="uni0490" unicode="&#x490;" horiz-adv-x="550" 
d="M78 0v667h354v123h83v-197h-354v-593h-83z" />
    <glyph glyph-name="uni0491" unicode="&#x491;" horiz-adv-x="436" 
d="M75 0v483h263v126h75v-192h-263v-417h-75z" />
    <glyph glyph-name="uni0492" unicode="&#x492;" horiz-adv-x="550" 
d="M161 593v-231h198v-64h-198v-298h-83v298h-68v64h68v305h437v-74h-354z" />
    <glyph glyph-name="uni0493" unicode="&#x493;" horiz-adv-x="436" 
d="M150 417v-145h135v-53h-135v-219h-75v219h-65v53h65v211h338v-66h-263z" />
    <glyph glyph-name="uni049A" unicode="&#x49a;" horiz-adv-x="614" 
d="M598 74v-197h-83v123h-34l-253 300l-67 -76v-224h-83v667h83v-345l295 345h104l-278 -317l240 -276h76z" />
    <glyph glyph-name="uni049B" unicode="&#x49b;" horiz-adv-x="537" 
d="M523 66v-189h-75v123h-44l-174 217l-80 -79v-138h-75v483h75v-257l254 257h95l-214 -219l163 -198h75z" />
    <glyph glyph-name="uni04B2" unicode="&#x4b2;" horiz-adv-x="674" 
d="M660 74v-197h-83v123h-38l-213 284l-213 -284h-101l260 342l-245 325h101l198 -267l197 267h101l-244 -324l204 -269h76z" />
    <glyph glyph-name="uni04B3" unicode="&#x4b3;" horiz-adv-x="515" 
d="M501 66v-189h-75v123h-38l-145 198l-145 -198h-86l185 248l-175 235h87l134 -184l134 184h87l-175 -235l138 -182h74z" />
    <glyph glyph-name="uni04E8" unicode="&#x4e8;" horiz-adv-x="765" 
d="M554 633q75 -45 117 -123.5t42 -176.5t-42 -176.5t-117 -123.5t-172 -45t-172.5 45t-117 123.5t-41.5 176.5t41.5 176.5t117 123.5t172.5 45t172 -45zM217 541.5q-65 -62.5 -77 -163.5h484q-12 101 -77.5 163.5t-164.5 62.5q-100 0 -165 -62.5zM503.5 93q53.5 31 85.5 86
t37 125h-488q6 -70 37.5 -125t84.5 -86t122 -31q68 0 121.5 31z" />
    <glyph glyph-name="uni04E9" unicode="&#x4e9;" 
d="M412 461.5q54 -33.5 83.5 -91.5t29.5 -128t-29.5 -128t-83.5 -92t-126 -34t-126 34t-83.5 92t-29.5 128t29.5 128t83.5 91.5t126 33.5t126 -33.5zM178 383.5q-42 -44.5 -50 -111.5h316q-9 67 -50.5 111.5t-107.5 44.5t-108 -44.5zM396 101q42 46 49 116h-318
q7 -70 49 -116t110 -46t110 46z" />
    <glyph glyph-name="uni1E02" unicode="&#x1e02;" horiz-adv-x="629" 
d="M78 667h297q86 0 136.5 -47t50.5 -123q0 -60 -34 -101.5t-83 -51.5q35 -5 65 -29t47.5 -60t17.5 -75q0 -81 -51.5 -130.5t-141.5 -49.5h-304v667zM361 378q55 0 85 30t30 77t-30.5 77.5t-84.5 30.5h-200v-215h200zM365 74q58 0 91 31t33 84q0 49 -32.5 82t-91.5 33h-204
v-230h204zM281 802q14 14 33 14t32.5 -13.5t13.5 -33.5t-13.5 -33.5t-32.5 -13.5t-33 14t-14 33t14 33z" />
    <glyph glyph-name="uni1E03" unicode="&#x1e03;" horiz-adv-x="575" 
d="M75 667h75v-257q30 40 72 62.5t91 22.5q63 0 111.5 -31.5t76 -89t27.5 -133.5q0 -77 -27.5 -134.5t-76 -88t-111.5 -30.5q-49 0 -92 23t-71 61v-72h-75v667zM210.5 77q40.5 -22 83.5 -22q72 0 114 52t42 134t-42 134.5t-114 52.5q-43 0 -83.5 -22.5t-60.5 -55.5v-219
q20 -32 60.5 -54zM261 802q14 14 33 14t32.5 -13.5t13.5 -33.5t-13.5 -33.5t-32.5 -13.5t-33 14t-14 33t14 33z" />
    <glyph glyph-name="uni1E0A" unicode="&#x1e0a;" horiz-adv-x="700" 
d="M78 667h228q101 0 179 -43.5t120.5 -120t42.5 -170.5q0 -95 -42.5 -170.5t-120.5 -119t-179 -43.5h-228v667zM306 74q79 0 137 34.5t88.5 93.5t30.5 131q0 73 -30 132t-88 93.5t-138 34.5h-145v-519h145zM317 802q14 14 33 14t32.5 -13.5t13.5 -33.5t-13.5 -33.5
t-32.5 -13.5t-33 14t-14 33t14 33z" />
    <glyph glyph-name="uni1E0B" unicode="&#x1e0b;" horiz-adv-x="575" 
d="M425 72q-28 -38 -71 -61t-92 -23q-63 0 -111.5 30.5t-76 88t-27.5 134.5q0 76 27 133.5t76 89t112 31.5q48 0 90.5 -22.5t72.5 -62.5v257h75v-667h-75v72zM425 350q-21 33 -61.5 55.5t-83.5 22.5q-71 0 -113 -52.5t-42 -134.5t42 -134t113 -52q44 0 84 22t61 54v219z
M249 802q14 14 33 14t32.5 -13.5t13.5 -33.5t-13.5 -33.5t-32.5 -13.5t-33 14t-14 33t14 33z" />
    <glyph glyph-name="uni1E1E" unicode="&#x1e1e;" horiz-adv-x="550" 
d="M78 667h437v-74h-354v-215h347v-74h-347v-304h-83v667zM264 802q14 14 33 14t32.5 -13.5t13.5 -33.5t-13.5 -33.5t-32.5 -13.5t-33 14t-14 33t14 33z" />
    <glyph glyph-name="uni1E1F" unicode="&#x1e1f;" horiz-adv-x="283" 
d="M96 417h-80v66h80v37q0 74 38 115.5t102 41.5q46 0 73 -17l-19 -56q-19 11 -43 11q-37 0 -56.5 -24.5t-19.5 -70.5v-37h98v-66h-98v-417h-75v417zM204 802q14 14 33 14t32.5 -13.5t13.5 -33.5t-13.5 -33.5t-32.5 -13.5t-33 14t-14 33t14 33z" />
    <glyph glyph-name="uni1E22" unicode="&#x1e22;" horiz-adv-x="712" 
d="M551 306h-390v-306h-83v667h83v-287h390v287h83v-667h-83v306zM322 802q14 14 33 14t32.5 -13.5t13.5 -33.5t-13.5 -33.5t-32.5 -13.5t-33 14t-14 33t14 33z" />
    <glyph glyph-name="uni1E23" unicode="&#x1e23;" horiz-adv-x="552" 
d="M402 318q0 60 -28 85t-81 25q-41 0 -80.5 -22t-62.5 -53v-353h-75v667h75v-254q28 33 75 57.5t98 24.5q154 0 154 -154v-341h-75v318zM243 802q14 14 33 14t32.5 -13.5t13.5 -33.5t-13.5 -33.5t-32.5 -13.5t-33 14t-14 33t14 33z" />
    <glyph glyph-name="uni1E56" unicode="&#x1e56;" horiz-adv-x="587" 
d="M78 667h268q65 0 112.5 -27t72 -73t24.5 -101t-25 -101t-72.5 -73t-111.5 -27h-185v-265h-83v667zM432 557.5q-37 35.5 -96 35.5h-175v-254h175q59 0 96 35.5t37 91.5t-37 91.5zM260 802q14 14 33 14t32.5 -13.5t13.5 -33.5t-13.5 -33.5t-32.5 -13.5t-33 14t-14 33t14 33
z" />
    <glyph glyph-name="uni1E57" unicode="&#x1e57;" 
d="M75 -184v667h75v-72q27 38 70 61t93 23q63 0 112 -30.5t76 -88t27 -134.5t-27 -134.5t-76 -88.5t-112 -31q-49 0 -91.5 22t-71.5 63v-257h-75zM407 376q-42 52 -113 52q-43 0 -83.5 -22.5t-60.5 -54.5v-218q20 -33 60.5 -55.5t83.5 -22.5q71 0 113 52.5t42 134.5t-42 134
zM260 635q14 14 33 14t32.5 -13.5t13.5 -33.5t-13.5 -33.5t-32.5 -13.5t-33 14t-14 33t14 33z" />
    <glyph glyph-name="uni1E60" unicode="&#x1e60;" horiz-adv-x="586" 
d="M87 157q37 -41 91 -68t119 -27q81 0 119 34.5t38 80.5q0 37 -22.5 60.5t-55.5 36.5t-91 29q-74 19 -118.5 37t-76 54.5t-31.5 97.5q0 54 30 96t82 65.5t117 23.5q149 0 237 -93l-50 -61q-36 40 -86 60t-107 20q-60 0 -98.5 -29.5t-38.5 -76.5q0 -31 21.5 -51.5t52.5 -32
t88 -26.5q74 -20 120.5 -39.5t79.5 -59t33 -104.5q0 -52 -25 -96.5t-80.5 -72t-140.5 -27.5q-83 0 -147.5 28.5t-108.5 77.5zM260 802q14 14 33 14t32.5 -13.5t13.5 -33.5t-13.5 -33.5t-32.5 -13.5t-33 14t-14 33t14 33z" />
    <glyph glyph-name="uni1E61" unicode="&#x1e61;" horiz-adv-x="465" 
d="M72 118q25 -29 68.5 -49t90.5 -20q54 0 84 23t30 60q0 25 -16.5 40.5t-40.5 23.5t-67 19q-56 13 -90.5 26t-59.5 41t-25 74q0 38 21.5 69.5t62 50.5t96.5 19q109 0 179 -70l-35 -52q-23 27 -61 44t-83 17q-49 0 -78 -21.5t-29 -54.5q0 -31 28.5 -45t89.5 -29
q56 -13 92.5 -27t62.5 -43.5t26 -79.5q0 -64 -50 -105t-140 -41q-123 0 -195 76zM199 635q14 14 33 14t32.5 -13.5t13.5 -33.5t-13.5 -33.5t-32.5 -13.5t-33 14t-14 33t14 33z" />
    <glyph glyph-name="uni1E6A" unicode="&#x1e6a;" horiz-adv-x="570" 
d="M243 593h-211v74h506v-74h-212v-593h-83v593zM251 802q14 14 33 14t32.5 -13.5t13.5 -33.5t-13.5 -33.5t-32.5 -13.5t-33 14t-14 33t14 33z" />
    <glyph glyph-name="uni1E6B" unicode="&#x1e6b;" horiz-adv-x="294" 
d="M117 17q-27 29 -27 84v316h-80v66h80v132h75v-132h98v-66h-98v-300q0 -28 12.5 -45t36.5 -17q15 0 29 5.5t22 14.5l22 -56q-33 -31 -90 -31q-53 0 -80 29zM101 802q14 14 33 14t32.5 -13.5t13.5 -33.5t-13.5 -33.5t-32.5 -13.5t-33 14t-14 33t14 33z" />
    <glyph glyph-name="Wgrave" unicode="&#x1e80;" horiz-adv-x="883" 
d="M441 538l-147 -538h-90l-190 667h92l148 -556l153 556h69l153 -556l147 556h92l-190 -667h-90zM272 867h78l148 -144h-57z" />
    <glyph glyph-name="wgrave" unicode="&#x1e81;" horiz-adv-x="734" 
d="M367 388l-126 -388h-75l-154 483h78l118 -385l127 385h64l127 -385l118 385h78l-154 -483h-75zM198 700h78l148 -144h-57z" />
    <glyph glyph-name="Wacute" unicode="&#x1e82;" horiz-adv-x="883" 
d="M441 538l-147 -538h-90l-190 667h92l148 -556l153 556h69l153 -556l147 556h92l-190 -667h-90zM384 723l148 144h78l-169 -144h-57z" />
    <glyph glyph-name="wacute" unicode="&#x1e83;" horiz-adv-x="734" 
d="M367 388l-126 -388h-75l-154 483h78l118 -385l127 385h64l127 -385l118 385h78l-154 -483h-75zM310 556l148 144h78l-169 -144h-57z" />
    <glyph glyph-name="Wdieresis" unicode="&#x1e84;" horiz-adv-x="883" 
d="M441 538l-147 -538h-90l-190 667h92l148 -556l153 556h69l153 -556l147 556h92l-190 -667h-90zM305 738q-14 14 -14 33t14 32.5t33 13.5t32.5 -13.5t13.5 -32.5t-13.5 -33t-32.5 -14t-33 14zM511 738q-14 14 -14 33t14 32.5t33 13.5t33 -13.5t14 -32.5t-14 -33t-33 -14
t-33 14z" />
    <glyph glyph-name="wdieresis" unicode="&#x1e85;" horiz-adv-x="734" 
d="M367 388l-126 -388h-75l-154 483h78l118 -385l127 385h64l127 -385l118 385h78l-154 -483h-75zM231 571q-14 14 -14 33t14 32.5t33 13.5t32.5 -13.5t13.5 -32.5t-13.5 -33t-32.5 -14t-33 14zM437 571q-14 14 -14 33t14 32.5t33 13.5t33 -13.5t14 -32.5t-14 -33t-33 -14
t-33 14z" />
    <glyph glyph-name="uni1E9E" unicode="&#x1e9e;" horiz-adv-x="672" 
d="M575.5 338q64.5 -49 64.5 -146q0 -59 -29.5 -105.5t-81 -72.5t-116.5 -26q-122 0 -192 74l51 58q28 -28 62 -43t79 -15q64 0 102.5 35t38.5 95q0 71 -55.5 101.5t-157.5 30.5h-37v71l163 176q-47 33 -117 33q-91 0 -140 -53t-49 -146v-405h-83v407q0 126 69.5 198.5
t202.5 72.5q75 0 132.5 -24.5t92.5 -74.5l-171 -187q107 -5 171.5 -54z" />
    <glyph glyph-name="uni1EA0" unicode="&#x1ea0;" horiz-adv-x="658" 
d="M495 148h-332l-59 -148h-95l268 667h103l269 -667h-95zM187 222h283l-141 359zM296 -104q14 14 33 14t32.5 -13.5t13.5 -33.5t-13.5 -33.5t-32.5 -13.5t-33 14t-14 33t14 33z" />
    <glyph glyph-name="uni1EA1" unicode="&#x1ea1;" horiz-adv-x="527" 
d="M377 55q-61 -67 -160 -67q-43 0 -81.5 18.5t-63 55t-24.5 86.5q0 51 24.5 87t63 54t81.5 18q103 0 160 -66v87q0 48 -34 75t-88 27q-44 0 -80 -16.5t-68 -50.5l-35 52q39 41 86.5 60.5t106.5 19.5q83 0 135 -40t52 -123v-332h-75v55zM377 193q-21 29 -56.5 44.5
t-76.5 15.5q-52 0 -85.5 -29.5t-33.5 -76.5q0 -46 33.5 -75.5t85.5 -29.5q41 0 76.5 15.5t56.5 44.5v91zM231 -104q14 14 33 14t32.5 -13.5t13.5 -33.5t-13.5 -33.5t-32.5 -13.5t-33 14t-14 33t14 33z" />
    <glyph glyph-name="uni1EA2" unicode="&#x1ea2;" horiz-adv-x="658" 
d="M495 148h-332l-59 -148h-95l268 667h103l269 -667h-95zM187 222h283l-141 359zM283 805q19 15 46 15q31 0 51.5 -17.5t20.5 -51.5q0 -16 -4.5 -28t-14.5 -26h-40q23 23 23 52q0 19 -9.5 29t-26.5 10q-29 0 -40 -32l-33 9q8 25 27 40z" />
    <glyph glyph-name="uni1EA3" unicode="&#x1ea3;" horiz-adv-x="527" 
d="M377 55q-61 -67 -160 -67q-43 0 -81.5 18.5t-63 55t-24.5 86.5q0 51 24.5 87t63 54t81.5 18q103 0 160 -66v87q0 48 -34 75t-88 27q-44 0 -80 -16.5t-68 -50.5l-35 52q39 41 86.5 60.5t106.5 19.5q83 0 135 -40t52 -123v-332h-75v55zM377 193q-21 29 -56.5 44.5
t-76.5 15.5q-52 0 -85.5 -29.5t-33.5 -76.5q0 -46 33.5 -75.5t85.5 -29.5q41 0 76.5 15.5t56.5 44.5v91zM217 635q19 15 46 15q31 0 51.5 -17.5t20.5 -51.5q0 -16 -4.5 -28t-14.5 -26h-40q23 23 23 52q0 19 -9.5 29t-26.5 10q-29 0 -40 -32l-33 9q8 25 27 40z" />
    <glyph glyph-name="uni1EA4" unicode="&#x1ea4;" horiz-adv-x="658" 
d="M431 736l148 108h78l-169 -108h-57zM329 761l-80 -79h-51l95 108h72l98 -108h-52zM495 148h-332l-59 -148h-95l268 667h103l269 -667h-95zM187 222h283l-141 359z" />
    <glyph glyph-name="uni1EA5" unicode="&#x1ea5;" horiz-adv-x="527" 
d="M377 55q-61 -67 -160 -67q-43 0 -81.5 18.5t-63 55t-24.5 86.5q0 51 24.5 87t63 54t81.5 18q103 0 160 -66v87q0 48 -34 75t-88 27q-44 0 -80 -16.5t-68 -50.5l-35 52q39 41 86.5 60.5t106.5 19.5q83 0 135 -40t52 -123v-332h-75v55zM377 193q-21 29 -56.5 44.5
t-76.5 15.5q-52 0 -85.5 -29.5t-33.5 -76.5q0 -46 33.5 -75.5t85.5 -29.5q41 0 76.5 15.5t56.5 44.5v91zM264 662l-80 -106h-51l95 144h72l98 -144h-51zM361 626l148 144h78l-169 -144h-57z" />
    <glyph glyph-name="uni1EA6" unicode="&#x1ea6;" horiz-adv-x="658" 
d="M3 844h78l148 -108h-57zM329 761l-80 -79h-51l95 108h72l98 -108h-52zM495 148h-332l-59 -148h-95l268 667h103l269 -667h-95zM187 222h283l-141 359z" />
    <glyph glyph-name="uni1EA7" unicode="&#x1ea7;" horiz-adv-x="527" 
d="M377 55q-61 -67 -160 -67q-43 0 -81.5 18.5t-63 55t-24.5 86.5q0 51 24.5 87t63 54t81.5 18q103 0 160 -66v87q0 48 -34 75t-88 27q-44 0 -80 -16.5t-68 -50.5l-35 52q39 41 86.5 60.5t106.5 19.5q83 0 135 -40t52 -123v-332h-75v55zM377 193q-21 29 -56.5 44.5
t-76.5 15.5q-52 0 -85.5 -29.5t-33.5 -76.5q0 -46 33.5 -75.5t85.5 -29.5q41 0 76.5 15.5t56.5 44.5v91zM264 662l-80 -106h-51l95 144h72l98 -144h-51zM-57 770h78l148 -144h-57z" />
    <glyph glyph-name="uni1EA8" unicode="&#x1ea8;" horiz-adv-x="658" 
d="M422 825.5q19 11.5 46 11.5q31 0 51.5 -13.5t20.5 -39.5q0 -11 -4.5 -19.5t-14.5 -20.5h-40q23 18 23 40q0 14 -10 21.5t-26 7.5q-31 0 -40 -25l-33 7q8 19 27 30.5zM329 761l-80 -79h-51l95 108h72l98 -108h-52zM495 148h-332l-59 -148h-95l268 667h103l269 -667h-95z
M187 222h283l-141 359z" />
    <glyph glyph-name="uni1EA9" unicode="&#x1ea9;" horiz-adv-x="527" 
d="M377 55q-61 -67 -160 -67q-43 0 -81.5 18.5t-63 55t-24.5 86.5q0 51 24.5 87t63 54t81.5 18q103 0 160 -66v87q0 48 -34 75t-88 27q-44 0 -80 -16.5t-68 -50.5l-35 52q39 41 86.5 60.5t106.5 19.5q83 0 135 -40t52 -123v-332h-75v55zM377 193q-21 29 -56.5 44.5
t-76.5 15.5q-52 0 -85.5 -29.5t-33.5 -76.5q0 -46 33.5 -75.5t85.5 -29.5q41 0 76.5 15.5t56.5 44.5v91zM264 662l-80 -106h-51l95 144h72l98 -144h-51zM309 775q19 15 46 15q31 0 51.5 -17.5t20.5 -51.5q0 -16 -4.5 -28t-14.5 -26h-40q23 23 23 52q0 19 -9.5 29t-26.5 10
q-29 0 -40 -32l-33 9q8 25 27 40z" />
    <glyph glyph-name="uni1EAA" unicode="&#x1eaa;" horiz-adv-x="658" 
d="M289.5 798q-10.5 5 -24.5 5q-22 0 -35.5 -11t-13.5 -32h-44q0 30 25.5 48.5t71.5 18.5q26 0 41.5 -6.5t33.5 -19.5q13 -10 23 -15t24 -5q22 0 35.5 11t13.5 32h45q0 -30 -25.5 -48.5t-71.5 -18.5q-26 0 -42 6.5t-34 19.5q-12 10 -22.5 15zM329 731l-80 -53h-51l95 72h72
l98 -72h-52zM495 148h-332l-59 -148h-95l268 667h103l269 -667h-95zM187 222h283l-141 359z" />
    <glyph glyph-name="uni1EAB" unicode="&#x1eab;" horiz-adv-x="527" 
d="M377 55q-61 -67 -160 -67q-43 0 -81.5 18.5t-63 55t-24.5 86.5q0 51 24.5 87t63 54t81.5 18q103 0 160 -66v87q0 48 -34 75t-88 27q-44 0 -80 -16.5t-68 -50.5l-35 52q39 41 86.5 60.5t106.5 19.5q83 0 135 -40t52 -123v-332h-75v55zM377 193q-21 29 -56.5 44.5
t-76.5 15.5q-52 0 -85.5 -29.5t-33.5 -76.5q0 -46 33.5 -75.5t85.5 -29.5q41 0 76.5 15.5t56.5 44.5v91zM264 629l-80 -106h-51l95 144h72l98 -144h-51zM224.5 764.5q-9.5 9.5 -24.5 9.5q-21 0 -34.5 -21.5t-13.5 -64.5h-45q0 60 25.5 97t71.5 37q26 0 41.5 -13.5
t33.5 -39.5q15 -21 24 -30t24 -9q21 0 34.5 21.5t13.5 64.5h45q0 -60 -25.5 -97t-71.5 -37q-27 0 -42.5 13.5t-33.5 39.5q-13 20 -22.5 29.5z" />
    <glyph glyph-name="uni1EAC" unicode="&#x1eac;" horiz-adv-x="658" 
d="M495 148h-332l-59 -148h-95l268 667h103l269 -667h-95zM187 222h283l-141 359zM296 -104q14 14 33 14t32.5 -13.5t13.5 -33.5t-13.5 -33.5t-32.5 -13.5t-33 14t-14 33t14 33zM328 829l-80 -106h-51l95 144h72l98 -144h-51z" />
    <glyph glyph-name="uni1EAD" unicode="&#x1ead;" horiz-adv-x="527" 
d="M377 55q-61 -67 -160 -67q-43 0 -81.5 18.5t-63 55t-24.5 86.5q0 51 24.5 87t63 54t81.5 18q103 0 160 -66v87q0 48 -34 75t-88 27q-44 0 -80 -16.5t-68 -50.5l-35 52q39 41 86.5 60.5t106.5 19.5q83 0 135 -40t52 -123v-332h-75v55zM377 193q-21 29 -56.5 44.5
t-76.5 15.5q-52 0 -85.5 -29.5t-33.5 -76.5q0 -46 33.5 -75.5t85.5 -29.5q41 0 76.5 15.5t56.5 44.5v91zM231 -104q14 14 33 14t32.5 -13.5t13.5 -33.5t-13.5 -33.5t-32.5 -13.5t-33 14t-14 33t14 33zM262 662l-80 -106h-51l95 144h72l98 -144h-51z" />
    <glyph glyph-name="uni1EAE" unicode="&#x1eae;" horiz-adv-x="658" 
d="M271 748l148 97h78l-169 -97h-57zM230 706q-46 20 -77 55l37 26q24 -28 60 -44t79 -16t78.5 16t59.5 44l37 -26q-31 -35 -76.5 -55t-98.5 -20t-99 20zM495 148h-332l-59 -148h-95l268 667h103l269 -667h-95zM187 222h283l-141 359z" />
    <glyph glyph-name="uni1EAF" unicode="&#x1eaf;" horiz-adv-x="527" 
d="M377 55q-61 -67 -160 -67q-43 0 -81.5 18.5t-63 55t-24.5 86.5q0 51 24.5 87t63 54t81.5 18q103 0 160 -66v87q0 48 -34 75t-88 27q-44 0 -80 -16.5t-68 -50.5l-35 52q39 41 86.5 60.5t106.5 19.5q83 0 135 -40t52 -123v-332h-75v55zM377 193q-21 29 -56.5 44.5
t-76.5 15.5q-52 0 -85.5 -29.5t-33.5 -76.5q0 -46 33.5 -75.5t85.5 -29.5q41 0 76.5 15.5t56.5 44.5v91zM166 544.5q-46 23.5 -77 64.5l37 32q25 -34 60.5 -53t78.5 -19t78.5 19t59.5 53l37 -32q-31 -41 -76.5 -64.5t-98.5 -23.5t-99 23.5zM209 622l148 144h78l-169 -144
h-57z" />
    <glyph glyph-name="uni1EB0" unicode="&#x1eb0;" horiz-adv-x="658" 
d="M162 843h78l148 -97h-57zM230 702.5q-46 19.5 -77 54.5l37 27q24 -28 60 -44.5t79 -16.5t78.5 16.5t59.5 44.5l37 -27q-30 -35 -76 -54.5t-99 -19.5t-99 19.5zM495 148h-332l-59 -148h-95l268 667h103l269 -667h-95zM187 222h283l-141 359z" />
    <glyph glyph-name="uni1EB1" unicode="&#x1eb1;" horiz-adv-x="527" 
d="M377 55q-61 -67 -160 -67q-43 0 -81.5 18.5t-63 55t-24.5 86.5q0 51 24.5 87t63 54t81.5 18q103 0 160 -66v87q0 48 -34 75t-88 27q-44 0 -80 -16.5t-68 -50.5l-35 52q39 41 86.5 60.5t106.5 19.5q83 0 135 -40t52 -123v-332h-75v55zM377 193q-21 29 -56.5 44.5
t-76.5 15.5q-52 0 -85.5 -29.5t-33.5 -76.5q0 -46 33.5 -75.5t85.5 -29.5q41 0 76.5 15.5t56.5 44.5v91zM166 548.5q-46 23.5 -77 64.5l37 32q25 -34 60.5 -53t78.5 -19t78.5 19t59.5 53l37 -32q-31 -41 -76.5 -64.5t-98.5 -23.5t-99 23.5zM93 766h78l148 -144h-57z" />
    <glyph glyph-name="uni1EB2" unicode="&#x1eb2;" horiz-adv-x="658" 
d="M283 817q19 10 46 10q31 0 51.5 -12t20.5 -35q0 -10 -4.5 -18t-14.5 -18h-40q23 16 23 36q0 12 -10 19t-26 7q-31 0 -40 -22l-33 6q8 17 27 27zM230 704q-46 20 -77 55l37 27q24 -28 60 -44.5t79 -16.5t78.5 16t59.5 45l37 -27q-31 -35 -76.5 -55t-98.5 -20t-99 20z
M495 148h-332l-59 -148h-95l268 667h103l269 -667h-95zM187 222h283l-141 359z" />
    <glyph glyph-name="uni1EB3" unicode="&#x1eb3;" horiz-adv-x="527" 
d="M377 55q-61 -67 -160 -67q-43 0 -81.5 18.5t-63 55t-24.5 86.5q0 51 24.5 87t63 54t81.5 18q103 0 160 -66v87q0 48 -34 75t-88 27q-44 0 -80 -16.5t-68 -50.5l-35 52q39 41 86.5 60.5t106.5 19.5q83 0 135 -40t52 -123v-332h-75v55zM377 193q-21 29 -56.5 44.5
t-76.5 15.5q-52 0 -85.5 -29.5t-33.5 -76.5q0 -46 33.5 -75.5t85.5 -29.5q41 0 76.5 15.5t56.5 44.5v91zM166 548.5q-46 23.5 -77 64.5l37 32q25 -34 60.5 -53t78.5 -19t78.5 19t59.5 53l37 -32q-31 -41 -76.5 -64.5t-98.5 -23.5t-99 23.5zM218 730q19 15 46 15
q31 0 51.5 -17.5t20.5 -51.5q0 -16 -4.5 -28t-14.5 -26h-40q23 23 23 52q0 19 -9.5 29t-26.5 10q-29 0 -40 -32l-33 9q8 25 27 40z" />
    <glyph glyph-name="uni1EB4" unicode="&#x1eb4;" horiz-adv-x="658" 
d="M289.5 798q-10.5 5 -24.5 5q-22 0 -35.5 -11t-13.5 -32h-44q0 30 25.5 48.5t71.5 18.5q26 0 41.5 -6.5t33.5 -19.5q13 -10 23 -15t24 -5q22 0 35.5 11t13.5 32h45q0 -30 -25.5 -48.5t-71.5 -18.5q-26 0 -42 6.5t-34 19.5q-12 10 -22.5 15zM231.5 693.5
q-46.5 14.5 -77.5 39.5l37 19q24 -21 60 -32.5t79 -11.5t78.5 11.5t59.5 32.5l37 -19q-31 -25 -76.5 -39.5t-98.5 -14.5q-52 0 -98.5 14.5zM495 148h-332l-59 -148h-95l268 667h103l269 -667h-95zM187 222h283l-141 359z" />
    <glyph glyph-name="uni1EB5" unicode="&#x1eb5;" horiz-adv-x="527" 
d="M377 55q-61 -67 -160 -67q-43 0 -81.5 18.5t-63 55t-24.5 86.5q0 51 24.5 87t63 54t81.5 18q103 0 160 -66v87q0 48 -34 75t-88 27q-44 0 -80 -16.5t-68 -50.5l-35 52q39 41 86.5 60.5t106.5 19.5q83 0 135 -40t52 -123v-332h-75v55zM377 193q-21 29 -56.5 44.5
t-76.5 15.5q-52 0 -85.5 -29.5t-33.5 -76.5q0 -46 33.5 -75.5t85.5 -29.5q41 0 76.5 15.5t56.5 44.5v91zM166 548.5q-46 23.5 -77 64.5l37 32q25 -34 60.5 -53t78.5 -19t78.5 19t59.5 53l37 -32q-31 -41 -76.5 -64.5t-98.5 -23.5t-99 23.5zM224.5 739.5q-9.5 9.5 -24.5 9.5
q-21 0 -34.5 -21.5t-13.5 -64.5h-45q0 60 25.5 97t71.5 37q26 0 41.5 -13.5t33.5 -39.5q15 -21 24 -30t24 -9q21 0 34.5 21.5t13.5 64.5h45q0 -60 -25.5 -97t-71.5 -37q-27 0 -42.5 13.5t-33.5 39.5q-13 20 -22.5 29.5z" />
    <glyph glyph-name="uni1EB6" unicode="&#x1eb6;" horiz-adv-x="658" 
d="M495 148h-332l-59 -148h-95l268 667h103l269 -667h-95zM187 222h283l-141 359zM230 728.5q-46 23.5 -77 64.5l37 32q25 -34 60.5 -53t78.5 -19t78.5 19t59.5 53l37 -32q-31 -41 -76.5 -64.5t-98.5 -23.5t-99 23.5zM296 -104q14 14 33 14t32.5 -13.5t13.5 -33.5
t-13.5 -33.5t-32.5 -13.5t-33 14t-14 33t14 33z" />
    <glyph glyph-name="uni1EB7" unicode="&#x1eb7;" horiz-adv-x="527" 
d="M377 55q-61 -67 -160 -67q-43 0 -81.5 18.5t-63 55t-24.5 86.5q0 51 24.5 87t63 54t81.5 18q103 0 160 -66v87q0 48 -34 75t-88 27q-44 0 -80 -16.5t-68 -50.5l-35 52q39 41 86.5 60.5t106.5 19.5q83 0 135 -40t52 -123v-332h-75v55zM377 193q-21 29 -56.5 44.5
t-76.5 15.5q-52 0 -85.5 -29.5t-33.5 -76.5q0 -46 33.5 -75.5t85.5 -29.5q41 0 76.5 15.5t56.5 44.5v91zM163 561.5q-46 23.5 -77 64.5l37 32q25 -34 60.5 -53t78.5 -19t78.5 19t59.5 53l37 -32q-31 -41 -76.5 -64.5t-98.5 -23.5t-99 23.5zM231 -104q14 14 33 14t32.5 -13.5
t13.5 -33.5t-13.5 -33.5t-32.5 -13.5t-33 14t-14 33t14 33z" />
    <glyph glyph-name="uni1EB8" unicode="&#x1eb8;" horiz-adv-x="569" 
d="M78 667h437v-74h-354v-215h347v-74h-347v-230h354v-74h-437v667zM267 -104q14 14 33 14t32.5 -13.5t13.5 -33.5t-13.5 -33.5t-32.5 -13.5t-33 14t-14 33t14 33z" />
    <glyph glyph-name="uni1EB9" unicode="&#x1eb9;" horiz-adv-x="563" 
d="M78 369q31 58 85 92t122 34q71 0 123.5 -34t80.5 -93t28 -132v-19h-391q5 -71 52 -119t122 -48q42 0 81.5 16t67.5 45l36 -49q-74 -74 -192 -74q-71 0 -127 32t-87.5 90t-31.5 132q0 69 31 127zM200 409q-35 -24 -53.5 -61t-20.5 -76h317q-1 39 -18.5 76t-53 61t-87.5 24
q-49 0 -84 -24zM253 -104q14 14 33 14t32.5 -13.5t13.5 -33.5t-13.5 -33.5t-32.5 -13.5t-33 14t-14 33t14 33z" />
    <glyph glyph-name="uni1EBA" unicode="&#x1eba;" horiz-adv-x="569" 
d="M78 667h437v-74h-354v-215h347v-74h-347v-230h354v-74h-437v667zM245 805q19 15 46 15q31 0 51.5 -17.5t20.5 -51.5q0 -16 -4.5 -28t-14.5 -26h-40q23 23 23 52q0 19 -9.5 29t-26.5 10q-29 0 -40 -32l-33 9q8 25 27 40z" />
    <glyph glyph-name="uni1EBB" unicode="&#x1ebb;" horiz-adv-x="563" 
d="M78 369q31 58 85 92t122 34q71 0 123.5 -34t80.5 -93t28 -132v-19h-391q5 -71 52 -119t122 -48q42 0 81.5 16t67.5 45l36 -49q-74 -74 -192 -74q-71 0 -127 32t-87.5 90t-31.5 132q0 69 31 127zM200 409q-35 -24 -53.5 -61t-20.5 -76h317q-1 39 -18.5 76t-53 61t-87.5 24
q-49 0 -84 -24zM238 635q19 15 46 15q31 0 51.5 -17.5t20.5 -51.5q0 -16 -4.5 -28t-14.5 -26h-40q23 23 23 52q0 19 -9.5 29t-26.5 10q-29 0 -40 -32l-33 9q8 25 27 40z" />
    <glyph glyph-name="uni1EBC" unicode="&#x1ebc;" horiz-adv-x="569" 
d="M78 667h437v-74h-354v-215h347v-74h-347v-230h354v-74h-437v667zM258.5 803.5q-9.5 9.5 -24.5 9.5q-21 0 -34.5 -21.5t-13.5 -64.5h-45q0 60 25.5 97t71.5 37q26 0 41.5 -13.5t33.5 -39.5q15 -21 24 -30t24 -9q21 0 34.5 21.5t13.5 64.5h45q0 -60 -25.5 -97t-71.5 -37
q-27 0 -42.5 13.5t-33.5 39.5q-13 20 -22.5 29.5z" />
    <glyph glyph-name="uni1EBD" unicode="&#x1ebd;" horiz-adv-x="563" 
d="M78 369q31 58 85 92t122 34q71 0 123.5 -34t80.5 -93t28 -132v-19h-391q5 -71 52 -119t122 -48q42 0 81.5 16t67.5 45l36 -49q-74 -74 -192 -74q-71 0 -127 32t-87.5 90t-31.5 132q0 69 31 127zM200 409q-35 -24 -53.5 -61t-20.5 -76h317q-1 39 -18.5 76t-53 61t-87.5 24
q-49 0 -84 -24zM245.5 636.5q-9.5 9.5 -24.5 9.5q-21 0 -34.5 -21.5t-13.5 -64.5h-45q0 60 25.5 97t71.5 37q26 0 41.5 -13.5t33.5 -39.5q15 -21 24 -30t24 -9q21 0 34.5 21.5t13.5 64.5h45q0 -60 -25.5 -97t-71.5 -37q-27 0 -42.5 13.5t-33.5 39.5q-13 20 -22.5 29.5z" />
    <glyph glyph-name="uni1EBE" unicode="&#x1ebe;" horiz-adv-x="569" 
d="M402 736l148 108h78l-169 -108h-57zM300 761l-80 -79h-51l95 108h72l98 -108h-52zM78 667h437v-74h-354v-215h347v-74h-347v-230h354v-74h-437v667z" />
    <glyph glyph-name="uni1EBF" unicode="&#x1ebf;" horiz-adv-x="563" 
d="M78 369q31 58 85 92t122 34q71 0 123.5 -34t80.5 -93t28 -132v-19h-391q5 -71 52 -119t122 -48q42 0 81.5 16t67.5 45l36 -49q-74 -74 -192 -74q-71 0 -127 32t-87.5 90t-31.5 132q0 69 31 127zM200 409q-35 -24 -53.5 -61t-20.5 -76h317q-1 39 -18.5 76t-53 61t-87.5 24
q-49 0 -84 -24zM284 662l-80 -106h-51l95 144h72l98 -144h-51zM378 626l148 144h78l-169 -144h-57z" />
    <glyph glyph-name="uni1EC0" unicode="&#x1ec0;" horiz-adv-x="569" 
d="M-27 844h78l148 -108h-57zM299 761l-81 -79h-50l95 108h72l98 -108h-52zM78 667h437v-74h-354v-215h347v-74h-347v-230h354v-74h-437v667z" />
    <glyph glyph-name="uni1EC1" unicode="&#x1ec1;" horiz-adv-x="563" 
d="M78 369q31 58 85 92t122 34q71 0 123.5 -34t80.5 -93t28 -132v-19h-391q5 -71 52 -119t122 -48q42 0 81.5 16t67.5 45l36 -49q-74 -74 -192 -74q-71 0 -127 32t-87.5 90t-31.5 132q0 69 31 127zM200 409q-35 -24 -53.5 -61t-20.5 -76h317q-1 39 -18.5 76t-53 61t-87.5 24
q-49 0 -84 -24zM-38 770h78l148 -144h-57zM283 662l-80 -106h-51l95 144h72l98 -144h-51z" />
    <glyph glyph-name="uni1EC2" unicode="&#x1ec2;" horiz-adv-x="569" 
d="M393 825.5q19 11.5 47 11.5q30 0 50.5 -13.5t20.5 -39.5q0 -11 -4.5 -20t-14.5 -20h-39q23 19 23 40q0 14 -10 21.5t-26 7.5q-30 0 -41 -25l-32 7q7 19 26 30.5zM300 761l-80 -79h-51l95 108h72l98 -108h-51zM78 667h437v-74h-354v-215h347v-74h-347v-230h354v-74h-437
v667z" />
    <glyph glyph-name="uni1EC3" unicode="&#x1ec3;" horiz-adv-x="563" 
d="M78 369q31 58 85 92t122 34q71 0 123.5 -34t80.5 -93t28 -132v-19h-391q5 -71 52 -119t122 -48q42 0 81.5 16t67.5 45l36 -49q-74 -74 -192 -74q-71 0 -127 32t-87.5 90t-31.5 132q0 69 31 127zM200 409q-35 -24 -53.5 -61t-20.5 -76h317q-1 39 -18.5 76t-53 61t-87.5 24
q-49 0 -84 -24zM282 662l-80 -106h-51l95 144h72l98 -144h-51zM327 775q19 15 46 15q31 0 51.5 -17.5t20.5 -51.5q0 -16 -4.5 -28t-14.5 -26h-40q23 23 23 52q0 19 -9.5 29t-26.5 10q-29 0 -40 -32l-33 9q8 25 27 40z" />
    <glyph glyph-name="uni1EC4" unicode="&#x1ec4;" horiz-adv-x="569" 
d="M260.5 798q-10.5 5 -24.5 5q-22 0 -35.5 -11t-13.5 -32h-44q0 30 25.5 48.5t71.5 18.5q26 0 41.5 -6.5t33.5 -19.5q13 -10 23 -15t24 -5q22 0 35.5 11t13.5 32h45q0 -30 -25.5 -48.5t-71.5 -18.5q-26 0 -42 6.5t-34 19.5q-12 10 -22.5 15zM300 731l-80 -53h-51l95 72h72
l98 -72h-52zM78 667h437v-74h-354v-215h347v-74h-347v-230h354v-74h-437v667z" />
    <glyph glyph-name="uni1EC5" unicode="&#x1ec5;" horiz-adv-x="563" 
d="M78 369q31 58 85 92t122 34q71 0 123.5 -34t80.5 -93t28 -132v-19h-391q5 -71 52 -119t122 -48q42 0 81.5 16t67.5 45l36 -49q-74 -74 -192 -74q-71 0 -127 32t-87.5 90t-31.5 132q0 69 31 127zM200 409q-35 -24 -53.5 -61t-20.5 -76h317q-1 39 -18.5 76t-53 61t-87.5 24
q-49 0 -84 -24zM282 629l-80 -106h-51l95 144h72l98 -144h-51zM241.5 764.5q-9.5 9.5 -24.5 9.5q-21 0 -34.5 -21.5t-13.5 -64.5h-45q0 60 25.5 97t71.5 37q26 0 41.5 -13.5t33.5 -39.5q15 -21 24 -30t24 -9q21 0 34.5 21.5t13.5 64.5h45q0 -60 -25.5 -97t-71.5 -37
q-27 0 -42.5 13.5t-33.5 39.5q-13 20 -22.5 29.5z" />
    <glyph glyph-name="uni1EC6" unicode="&#x1ec6;" horiz-adv-x="569" 
d="M78 667h437v-74h-354v-215h347v-74h-347v-230h354v-74h-437v667zM267 -104q14 14 33 14t32.5 -13.5t13.5 -33.5t-13.5 -33.5t-32.5 -13.5t-33 14t-14 33t14 33zM294 829l-80 -106h-51l95 144h72l98 -144h-51z" />
    <glyph glyph-name="uni1EC7" unicode="&#x1ec7;" horiz-adv-x="563" 
d="M78 369q31 58 85 92t122 34q71 0 123.5 -34t80.5 -93t28 -132v-19h-391q5 -71 52 -119t122 -48q42 0 81.5 16t67.5 45l36 -49q-74 -74 -192 -74q-71 0 -127 32t-87.5 90t-31.5 132q0 69 31 127zM200 409q-35 -24 -53.5 -61t-20.5 -76h317q-1 39 -18.5 76t-53 61t-87.5 24
q-49 0 -84 -24zM253 -104q14 14 33 14t32.5 -13.5t13.5 -33.5t-13.5 -33.5t-32.5 -13.5t-33 14t-14 33t14 33zM285 662l-80 -106h-51l95 144h72l98 -144h-51z" />
    <glyph glyph-name="uni1EC8" unicode="&#x1ec8;" horiz-adv-x="239" 
d="M78 667h83v-667h-83v667zM74 805q19 15 46 15q31 0 51.5 -17.5t20.5 -51.5q0 -16 -4.5 -28t-14.5 -26h-40q23 23 23 52q0 19 -9.5 29t-26.5 10q-29 0 -40 -32l-33 9q8 25 27 40z" />
    <glyph glyph-name="uni1EC9" unicode="&#x1ec9;" horiz-adv-x="225" 
d="M75 483h75v-483h-75v483zM67 635q19 15 46 15q31 0 51.5 -17.5t20.5 -51.5q0 -16 -4.5 -28t-14.5 -26h-40q23 23 23 52q0 19 -9.5 29t-26.5 10q-29 0 -40 -32l-33 9q8 25 27 40z" />
    <glyph glyph-name="uni1ECA" unicode="&#x1eca;" horiz-adv-x="239" 
d="M78 667h83v-667h-83v667zM87 -104q14 14 33 14t32.5 -13.5t13.5 -33.5t-13.5 -33.5t-32.5 -13.5t-33 14t-14 33t14 33z" />
    <glyph glyph-name="uni1ECB" unicode="&#x1ecb;" horiz-adv-x="225" 
d="M77 566.5q-15 14.5 -15 35.5t15 36t35 15q21 0 36 -15t15 -36t-15 -35.5t-36 -14.5q-20 0 -35 14.5zM75 483h75v-483h-75v483zM80 -104q14 14 33 14t32.5 -13.5t13.5 -33.5t-13.5 -33.5t-32.5 -13.5t-33 14t-14 33t14 33z" />
    <glyph glyph-name="uni1ECC" unicode="&#x1ecc;" horiz-adv-x="765" 
d="M92.5 509.5q41.5 78.5 117 123.5t172.5 45t172 -45t117 -123.5t42 -176.5t-42 -176.5t-117 -123.5t-172 -45t-172.5 45t-117 123.5t-41.5 176.5t41.5 176.5zM596.5 472.5q-30.5 61.5 -86 96.5t-128.5 35q-74 0 -129.5 -35t-85.5 -96.5t-30 -139.5q0 -77 30 -139t86 -97
t129 -35t128.5 35t86 97t30.5 139q0 78 -30.5 139.5zM351 -104q14 14 33 14t32.5 -13.5t13.5 -33.5t-13.5 -33.5t-32.5 -13.5t-33 14t-14 33t14 33z" />
    <glyph glyph-name="uni1ECD" unicode="&#x1ecd;" 
d="M160 22q-54 34 -83.5 92t-29.5 128t29.5 128t83.5 91.5t126 33.5t126 -33.5t83.5 -91.5t29.5 -128t-29.5 -128t-83.5 -92t-126 -34t-126 34zM372 80.5q36 25.5 55 68.5t19 93t-19 92.5t-55 68t-86 25.5t-86.5 -25.5t-55.5 -68t-19 -92.5t19 -93t55.5 -68.5t86.5 -25.5
t86 25.5zM253 -104q14 14 33 14t32.5 -13.5t13.5 -33.5t-13.5 -33.5t-32.5 -13.5t-33 14t-14 33t14 33z" />
    <glyph glyph-name="uni1ECE" unicode="&#x1ece;" horiz-adv-x="765" 
d="M92.5 509.5q41.5 78.5 117 123.5t172.5 45t172 -45t117 -123.5t42 -176.5t-42 -176.5t-117 -123.5t-172 -45t-172.5 45t-117 123.5t-41.5 176.5t41.5 176.5zM596.5 472.5q-30.5 61.5 -86 96.5t-128.5 35q-74 0 -129.5 -35t-85.5 -96.5t-30 -139.5q0 -77 30 -139t86 -97
t129 -35t128.5 35t86 97t30.5 139q0 78 -30.5 139.5zM335 805q19 15 46 15q31 0 51.5 -17.5t20.5 -51.5q0 -16 -4.5 -28t-14.5 -26h-40q23 23 23 52q0 19 -9.5 29t-26.5 10q-29 0 -40 -32l-33 9q8 25 27 40z" />
    <glyph glyph-name="uni1ECF" unicode="&#x1ecf;" 
d="M160 22q-54 34 -83.5 92t-29.5 128t29.5 128t83.5 91.5t126 33.5t126 -33.5t83.5 -91.5t29.5 -128t-29.5 -128t-83.5 -92t-126 -34t-126 34zM372 80.5q36 25.5 55 68.5t19 93t-19 92.5t-55 68t-86 25.5t-86.5 -25.5t-55.5 -68t-19 -92.5t19 -93t55.5 -68.5t86.5 -25.5
t86 25.5zM240 635q19 15 46 15q31 0 51.5 -17.5t20.5 -51.5q0 -16 -4.5 -28t-14.5 -26h-40q23 23 23 52q0 19 -9.5 29t-26.5 10q-29 0 -40 -32l-33 9q8 25 27 40z" />
    <glyph glyph-name="uni1ED0" unicode="&#x1ed0;" horiz-adv-x="765" 
d="M481 736l148 108h78l-169 -108h-57zM379 761l-80 -79h-51l95 108h72l98 -108h-51zM92.5 509.5q41.5 78.5 117 123.5t172.5 45t172 -45t117 -123.5t42 -176.5t-42 -176.5t-117 -123.5t-172 -45t-172.5 45t-117 123.5t-41.5 176.5t41.5 176.5zM596.5 472.5
q-30.5 61.5 -86 96.5t-128.5 35q-74 0 -129.5 -35t-85.5 -96.5t-30 -139.5q0 -77 30 -139t86 -97t129 -35t128.5 35t86 97t30.5 139q0 78 -30.5 139.5z" />
    <glyph glyph-name="uni1ED1" unicode="&#x1ed1;" 
d="M160 22q-54 34 -83.5 92t-29.5 128t29.5 128t83.5 91.5t126 33.5t126 -33.5t83.5 -91.5t29.5 -128t-29.5 -128t-83.5 -92t-126 -34t-126 34zM372 80.5q36 25.5 55 68.5t19 93t-19 92.5t-55 68t-86 25.5t-86.5 -25.5t-55.5 -68t-19 -92.5t19 -93t55.5 -68.5t86.5 -25.5
t86 25.5zM285 662l-80 -106h-51l95 144h72l98 -144h-51zM380 626l148 144h78l-169 -144h-57z" />
    <glyph glyph-name="uni1ED2" unicode="&#x1ed2;" horiz-adv-x="765" 
d="M52 844h78l148 -108h-57zM378 761l-80 -79h-51l95 108h72l98 -108h-51zM92.5 509.5q41.5 78.5 117 123.5t172.5 45t172 -45t117 -123.5t42 -176.5t-42 -176.5t-117 -123.5t-172 -45t-172.5 45t-117 123.5t-41.5 176.5t41.5 176.5zM596.5 472.5q-30.5 61.5 -86 96.5
t-128.5 35q-74 0 -129.5 -35t-85.5 -96.5t-30 -139.5q0 -77 30 -139t86 -97t129 -35t128.5 35t86 97t30.5 139q0 78 -30.5 139.5z" />
    <glyph glyph-name="uni1ED3" unicode="&#x1ed3;" 
d="M160 22q-54 34 -83.5 92t-29.5 128t29.5 128t83.5 91.5t126 33.5t126 -33.5t83.5 -91.5t29.5 -128t-29.5 -128t-83.5 -92t-126 -34t-126 34zM372 80.5q36 25.5 55 68.5t19 93t-19 92.5t-55 68t-86 25.5t-86.5 -25.5t-55.5 -68t-19 -92.5t19 -93t55.5 -68.5t86.5 -25.5
t86 25.5zM-36 770h78l148 -144h-57zM285 662l-80 -106h-51l95 144h72l98 -144h-51z" />
    <glyph glyph-name="uni1ED4" unicode="&#x1ed4;" horiz-adv-x="765" 
d="M471 825.5q19 11.5 46 11.5q31 0 51.5 -13.5t20.5 -39.5q0 -11 -4.5 -19.5t-14.5 -20.5h-40q23 18 23 40q0 14 -10 21.5t-26 7.5q-31 0 -40 -25l-33 7q8 19 27 30.5zM378 761l-80 -79h-51l95 108h72l98 -108h-52zM92.5 509.5q41.5 78.5 117 123.5t172.5 45t172 -45
t117 -123.5t42 -176.5t-42 -176.5t-117 -123.5t-172 -45t-172.5 45t-117 123.5t-41.5 176.5t41.5 176.5zM596.5 472.5q-30.5 61.5 -86 96.5t-128.5 35q-74 0 -129.5 -35t-85.5 -96.5t-30 -139.5q0 -77 30 -139t86 -97t129 -35t128.5 35t86 97t30.5 139q0 78 -30.5 139.5z
" />
    <glyph glyph-name="uni1ED5" unicode="&#x1ed5;" 
d="M160 22q-54 34 -83.5 92t-29.5 128t29.5 128t83.5 91.5t126 33.5t126 -33.5t83.5 -91.5t29.5 -128t-29.5 -128t-83.5 -92t-126 -34t-126 34zM372 80.5q36 25.5 55 68.5t19 93t-19 92.5t-55 68t-86 25.5t-86.5 -25.5t-55.5 -68t-19 -92.5t19 -93t55.5 -68.5t86.5 -25.5
t86 25.5zM285 662l-80 -106h-51l95 144h72l98 -144h-51zM329 775q19 15 46 15q31 0 51.5 -17.5t20.5 -51.5q0 -16 -4.5 -28t-14.5 -26h-40q23 23 23 52q0 19 -9.5 29t-26.5 10q-29 0 -40 -32l-33 9q8 25 27 40z" />
    <glyph glyph-name="uni1ED6" unicode="&#x1ed6;" horiz-adv-x="765" 
d="M341 798q-10 5 -24 5q-22 0 -35.5 -11t-13.5 -32h-45q0 30 25.5 48.5t71.5 18.5q27 0 42.5 -7t32.5 -19q13 -10 23.5 -15t24.5 -5q21 0 34.5 11t13.5 32h45q0 -30 -25.5 -48.5t-71.5 -18.5q-27 0 -42.5 7t-32.5 19q-13 10 -23 15zM380 731l-80 -53h-51l95 72h72l98 -72
h-51zM92.5 509.5q41.5 78.5 117 123.5t172.5 45t172 -45t117 -123.5t42 -176.5t-42 -176.5t-117 -123.5t-172 -45t-172.5 45t-117 123.5t-41.5 176.5t41.5 176.5zM596.5 472.5q-30.5 61.5 -86 96.5t-128.5 35q-74 0 -129.5 -35t-85.5 -96.5t-30 -139.5q0 -77 30 -139t86 -97
t129 -35t128.5 35t86 97t30.5 139q0 78 -30.5 139.5z" />
    <glyph glyph-name="uni1ED7" unicode="&#x1ed7;" 
d="M160 22q-54 34 -83.5 92t-29.5 128t29.5 128t83.5 91.5t126 33.5t126 -33.5t83.5 -91.5t29.5 -128t-29.5 -128t-83.5 -92t-126 -34t-126 34zM372 80.5q36 25.5 55 68.5t19 93t-19 92.5t-55 68t-86 25.5t-86.5 -25.5t-55.5 -68t-19 -92.5t19 -93t55.5 -68.5t86.5 -25.5
t86 25.5zM283 629l-80 -106h-51l95 144h72l98 -144h-51zM243.5 764.5q-9.5 9.5 -24.5 9.5q-21 0 -34.5 -21.5t-13.5 -64.5h-45q0 60 25.5 97t71.5 37q26 0 41.5 -13.5t33.5 -39.5q15 -21 24 -30t24 -9q21 0 34.5 21.5t13.5 64.5h45q0 -60 -25.5 -97t-71.5 -37
q-27 0 -42.5 13.5t-33.5 39.5q-13 20 -22.5 29.5z" />
    <glyph glyph-name="uni1ED8" unicode="&#x1ed8;" horiz-adv-x="765" 
d="M92.5 509.5q41.5 78.5 117 123.5t172.5 45t172 -45t117 -123.5t42 -176.5t-42 -176.5t-117 -123.5t-172 -45t-172.5 45t-117 123.5t-41.5 176.5t41.5 176.5zM596.5 472.5q-30.5 61.5 -86 96.5t-128.5 35q-74 0 -129.5 -35t-85.5 -96.5t-30 -139.5q0 -77 30 -139t86 -97
t129 -35t128.5 35t86 97t30.5 139q0 78 -30.5 139.5zM352 -104q14 14 33 14t32.5 -13.5t13.5 -33.5t-13.5 -33.5t-32.5 -13.5t-33 14t-14 33t14 33zM383 829l-80 -106h-51l95 144h72l98 -144h-51z" />
    <glyph glyph-name="uni1ED9" unicode="&#x1ed9;" 
d="M160 22q-54 34 -83.5 92t-29.5 128t29.5 128t83.5 91.5t126 33.5t126 -33.5t83.5 -91.5t29.5 -128t-29.5 -128t-83.5 -92t-126 -34t-126 34zM372 80.5q36 25.5 55 68.5t19 93t-19 92.5t-55 68t-86 25.5t-86.5 -25.5t-55.5 -68t-19 -92.5t19 -93t55.5 -68.5t86.5 -25.5
t86 25.5zM253 -104q14 14 33 14t32.5 -13.5t13.5 -33.5t-13.5 -33.5t-32.5 -13.5t-33 14t-14 33t14 33zM284 662l-80 -106h-51l95 144h72l98 -144h-51z" />
    <glyph glyph-name="uni1EDA" unicode="&#x1eda;" horiz-adv-x="765" 
d="M701 593.5q-18 -33.5 -47 -55.5q59 -87 59 -205q0 -98 -42 -176.5t-117 -123.5t-172 -45t-172.5 45t-117 123.5t-41.5 176.5t41.5 176.5t117 123.5t172.5 45q76 0 140.5 -29t109.5 -81q18 15 30.5 36t14.5 40q-2 -2 -11 -2q-17 0 -28 12t-11 29q0 18 12 31t30 13
q21 0 35.5 -17t14.5 -46q0 -37 -18 -70.5zM510.5 97q55.5 35 86 97t30.5 139q0 78 -30.5 139.5t-86 96.5t-128.5 35q-74 0 -129.5 -35t-85.5 -96.5t-30 -139.5q0 -77 30 -139t86 -97t129 -35t128.5 35zM326 723l148 144h78l-169 -144h-57z" />
    <glyph glyph-name="uni1EDB" unicode="&#x1edb;" 
d="M511 464q-16 -32 -42 -53q27 -34 41.5 -77t14.5 -92q0 -70 -29.5 -128t-83.5 -92t-126 -34t-126 34t-83.5 92t-29.5 128t29.5 128t83.5 91.5t126 33.5q94 0 157 -57q17 15 28.5 34.5t13.5 37.5l-11 -1q-17 0 -28.5 11.5t-11.5 29.5q0 17 12.5 30t30.5 13q21 0 35.5 -17
t14.5 -46q0 -34 -16 -66zM372 80.5q36 25.5 55 68.5t19 93t-19 92.5t-55 68t-86 25.5t-86.5 -25.5t-55.5 -68t-19 -92.5t19 -93t55.5 -68.5t86.5 -25.5t86 25.5zM229 556l148 144h78l-169 -144h-57z" />
    <glyph glyph-name="uni1EDC" unicode="&#x1edc;" horiz-adv-x="765" 
d="M701 593.5q-18 -33.5 -47 -55.5q59 -87 59 -205q0 -98 -42 -176.5t-117 -123.5t-172 -45t-172.5 45t-117 123.5t-41.5 176.5t41.5 176.5t117 123.5t172.5 45q76 0 140.5 -29t109.5 -81q18 15 30.5 36t14.5 40q-2 -2 -11 -2q-17 0 -28 12t-11 29q0 18 12 31t30 13
q21 0 35.5 -17t14.5 -46q0 -37 -18 -70.5zM510.5 97q55.5 35 86 97t30.5 139q0 78 -30.5 139.5t-86 96.5t-128.5 35q-74 0 -129.5 -35t-85.5 -96.5t-30 -139.5q0 -77 30 -139t86 -97t129 -35t128.5 35zM214 867h78l148 -144h-57z" />
    <glyph glyph-name="uni1EDD" unicode="&#x1edd;" 
d="M511 464q-16 -32 -42 -53q27 -34 41.5 -77t14.5 -92q0 -70 -29.5 -128t-83.5 -92t-126 -34t-126 34t-83.5 92t-29.5 128t29.5 128t83.5 91.5t126 33.5q94 0 157 -57q17 15 28.5 34.5t13.5 37.5l-11 -1q-17 0 -28.5 11.5t-11.5 29.5q0 17 12.5 30t30.5 13q21 0 35.5 -17
t14.5 -46q0 -34 -16 -66zM372 80.5q36 25.5 55 68.5t19 93t-19 92.5t-55 68t-86 25.5t-86.5 -25.5t-55.5 -68t-19 -92.5t19 -93t55.5 -68.5t86.5 -25.5t86 25.5zM117 700h78l148 -144h-57z" />
    <glyph glyph-name="uni1EDE" unicode="&#x1ede;" horiz-adv-x="765" 
d="M701 593.5q-18 -33.5 -47 -55.5q59 -87 59 -205q0 -98 -42 -176.5t-117 -123.5t-172 -45t-172.5 45t-117 123.5t-41.5 176.5t41.5 176.5t117 123.5t172.5 45q76 0 140.5 -29t109.5 -81q18 15 30.5 36t14.5 40q-2 -2 -11 -2q-17 0 -28 12t-11 29q0 18 12 31t30 13
q21 0 35.5 -17t14.5 -46q0 -37 -18 -70.5zM510.5 97q55.5 35 86 97t30.5 139q0 78 -30.5 139.5t-86 96.5t-128.5 35q-74 0 -129.5 -35t-85.5 -96.5t-30 -139.5q0 -77 30 -139t86 -97t129 -35t128.5 35zM336 805q19 15 46 15q31 0 51.5 -17.5t20.5 -51.5q0 -16 -4.5 -28
t-14.5 -26h-40q23 23 23 52q0 19 -9.5 29t-26.5 10q-29 0 -40 -32l-33 9q8 25 27 40z" />
    <glyph glyph-name="uni1EDF" unicode="&#x1edf;" 
d="M511 464q-16 -32 -42 -53q27 -34 41.5 -77t14.5 -92q0 -70 -29.5 -128t-83.5 -92t-126 -34t-126 34t-83.5 92t-29.5 128t29.5 128t83.5 91.5t126 33.5q94 0 157 -57q17 15 28.5 34.5t13.5 37.5l-11 -1q-17 0 -28.5 11.5t-11.5 29.5q0 17 12.5 30t30.5 13q21 0 35.5 -17
t14.5 -46q0 -34 -16 -66zM372 80.5q36 25.5 55 68.5t19 93t-19 92.5t-55 68t-86 25.5t-86.5 -25.5t-55.5 -68t-19 -92.5t19 -93t55.5 -68.5t86.5 -25.5t86 25.5zM240 635q19 15 46 15q31 0 51.5 -17.5t20.5 -51.5q0 -16 -4.5 -28t-14.5 -26h-40q23 23 23 52q0 19 -9.5 29
t-26.5 10q-29 0 -40 -32l-33 9q8 25 27 40z" />
    <glyph glyph-name="uni1EE0" unicode="&#x1ee0;" horiz-adv-x="765" 
d="M701 593.5q-18 -33.5 -47 -55.5q59 -87 59 -205q0 -98 -42 -176.5t-117 -123.5t-172 -45t-172.5 45t-117 123.5t-41.5 176.5t41.5 176.5t117 123.5t172.5 45q76 0 140.5 -29t109.5 -81q18 15 30.5 36t14.5 40q-2 -2 -11 -2q-17 0 -28 12t-11 29q0 18 12 31t30 13
q21 0 35.5 -17t14.5 -46q0 -37 -18 -70.5zM510.5 97q55.5 35 86 97t30.5 139q0 78 -30.5 139.5t-86 96.5t-128.5 35q-74 0 -129.5 -35t-85.5 -96.5t-30 -139.5q0 -77 30 -139t86 -97t129 -35t128.5 35zM343.5 803.5q-9.5 9.5 -24.5 9.5q-21 0 -34.5 -21.5t-13.5 -64.5h-45
q0 60 25.5 97t71.5 37q26 0 41.5 -13.5t33.5 -39.5q15 -21 24 -30t24 -9q21 0 34.5 21.5t13.5 64.5h45q0 -60 -25.5 -97t-71.5 -37q-27 0 -42.5 13.5t-33.5 39.5q-13 20 -22.5 29.5z" />
    <glyph glyph-name="uni1EE1" unicode="&#x1ee1;" 
d="M511 464q-16 -32 -42 -53q27 -34 41.5 -77t14.5 -92q0 -70 -29.5 -128t-83.5 -92t-126 -34t-126 34t-83.5 92t-29.5 128t29.5 128t83.5 91.5t126 33.5q94 0 157 -57q17 15 28.5 34.5t13.5 37.5l-11 -1q-17 0 -28.5 11.5t-11.5 29.5q0 17 12.5 30t30.5 13q21 0 35.5 -17
t14.5 -46q0 -34 -16 -66zM372 80.5q36 25.5 55 68.5t19 93t-19 92.5t-55 68t-86 25.5t-86.5 -25.5t-55.5 -68t-19 -92.5t19 -93t55.5 -68.5t86.5 -25.5t86 25.5zM246.5 636.5q-9.5 9.5 -24.5 9.5q-21 0 -34.5 -21.5t-13.5 -64.5h-45q0 60 25.5 97t71.5 37q26 0 41.5 -13.5
t33.5 -39.5q15 -21 24 -30t24 -9q21 0 34.5 21.5t13.5 64.5h45q0 -60 -25.5 -97t-71.5 -37q-27 0 -42.5 13.5t-33.5 39.5q-13 20 -22.5 29.5z" />
    <glyph glyph-name="uni1EE2" unicode="&#x1ee2;" horiz-adv-x="765" 
d="M701 593.5q-18 -33.5 -47 -55.5q59 -87 59 -205q0 -98 -42 -176.5t-117 -123.5t-172 -45t-172.5 45t-117 123.5t-41.5 176.5t41.5 176.5t117 123.5t172.5 45q76 0 140.5 -29t109.5 -81q18 15 30.5 36t14.5 40q-2 -2 -11 -2q-17 0 -28 12t-11 29q0 18 12 31t30 13
q21 0 35.5 -17t14.5 -46q0 -37 -18 -70.5zM510.5 97q55.5 35 86 97t30.5 139q0 78 -30.5 139.5t-86 96.5t-128.5 35q-74 0 -129.5 -35t-85.5 -96.5t-30 -139.5q0 -77 30 -139t86 -97t129 -35t128.5 35zM351 -104q14 14 33 14t32.5 -13.5t13.5 -33.5t-13.5 -33.5t-32.5 -13.5
t-33 14t-14 33t14 33z" />
    <glyph glyph-name="uni1EE3" unicode="&#x1ee3;" 
d="M511 464q-16 -32 -42 -53q27 -34 41.5 -77t14.5 -92q0 -70 -29.5 -128t-83.5 -92t-126 -34t-126 34t-83.5 92t-29.5 128t29.5 128t83.5 91.5t126 33.5q94 0 157 -57q17 15 28.5 34.5t13.5 37.5l-11 -1q-17 0 -28.5 11.5t-11.5 29.5q0 17 12.5 30t30.5 13q21 0 35.5 -17
t14.5 -46q0 -34 -16 -66zM372 80.5q36 25.5 55 68.5t19 93t-19 92.5t-55 68t-86 25.5t-86.5 -25.5t-55.5 -68t-19 -92.5t19 -93t55.5 -68.5t86.5 -25.5t86 25.5zM253 -104q14 14 33 14t32.5 -13.5t13.5 -33.5t-13.5 -33.5t-32.5 -13.5t-33 14t-14 33t14 33z" />
    <glyph glyph-name="uni1EE4" unicode="&#x1ee4;" horiz-adv-x="700" 
d="M78 667h83v-406q0 -93 49 -146t140 -53t140 53t49 146v406h83v-407q0 -127 -69.5 -199.5t-202.5 -72.5t-202.5 72.5t-69.5 198.5v408zM321 -104q14 14 33 14t32.5 -13.5t13.5 -33.5t-13.5 -33.5t-32.5 -13.5t-33 14t-14 33t14 33z" />
    <glyph glyph-name="uni1EE5" unicode="&#x1ee5;" horiz-adv-x="551" 
d="M401 68q-30 -34 -75.5 -57t-96.5 -23q-154 0 -154 154v341h75v-318q0 -60 27.5 -85t80.5 -25q42 0 81.5 21t61.5 52v355h75v-483h-75v68zM245 -104q14 14 33 14t32.5 -13.5t13.5 -33.5t-13.5 -33.5t-32.5 -13.5t-33 14t-14 33t14 33z" />
    <glyph glyph-name="uni1EE6" unicode="&#x1ee6;" horiz-adv-x="700" 
d="M78 667h83v-406q0 -93 49 -146t140 -53t140 53t49 146v406h83v-407q0 -127 -69.5 -199.5t-202.5 -72.5t-202.5 72.5t-69.5 198.5v408zM305 805q19 15 46 15q31 0 51.5 -17.5t20.5 -51.5q0 -16 -4.5 -28t-14.5 -26h-40q23 23 23 52q0 19 -9.5 29t-26.5 10q-29 0 -40 -32
l-33 9q8 25 27 40z" />
    <glyph glyph-name="uni1EE7" unicode="&#x1ee7;" horiz-adv-x="551" 
d="M401 68q-30 -34 -75.5 -57t-96.5 -23q-154 0 -154 154v341h75v-318q0 -60 27.5 -85t80.5 -25q42 0 81.5 21t61.5 52v355h75v-483h-75v68zM230 635q19 15 46 15q31 0 51.5 -17.5t20.5 -51.5q0 -16 -4.5 -28t-14.5 -26h-40q23 23 23 52q0 19 -9.5 29t-26.5 10
q-29 0 -40 -32l-33 9q8 25 27 40z" />
    <glyph glyph-name="uni1EE8" unicode="&#x1ee8;" horiz-adv-x="700" 
d="M706.5 638q-31.5 -42 -84.5 -63v-315q0 -127 -69.5 -199.5t-202.5 -72.5t-202.5 72.5t-69.5 198.5v408h83v-406q0 -93 49 -146t140 -53t140 53t49 146v406h83v-53q30 15 51 41t22 53l-11 -1q-17 0 -28 11.5t-11 29.5t12.5 30.5t30.5 12.5q21 0 35.5 -17t14.5 -46
q0 -48 -31.5 -90zM293 723l148 144h78l-169 -144h-57z" />
    <glyph glyph-name="uni1EE9" unicode="&#x1ee9;" horiz-adv-x="551" 
d="M544.5 454.5q-25.5 -38.5 -68.5 -61.5v-393h-75v68q-30 -34 -75.5 -57t-96.5 -23q-154 0 -154 154v341h75v-318q0 -60 27.5 -85t80.5 -25q42 0 81.5 21t61.5 52v355h75v-48q22 16 36 38t15 43l-11 -1q-17 0 -28.5 11.5t-11.5 29.5q0 17 12.5 30t30.5 13q21 0 36 -17
t15 -46q0 -43 -25.5 -81.5zM218 556l148 144h78l-169 -144h-57z" />
    <glyph glyph-name="uni1EEA" unicode="&#x1eea;" horiz-adv-x="700" 
d="M706.5 638q-31.5 -42 -84.5 -63v-315q0 -127 -69.5 -199.5t-202.5 -72.5t-202.5 72.5t-69.5 198.5v408h83v-406q0 -93 49 -146t140 -53t140 53t49 146v406h83v-53q30 15 51 41t22 53l-11 -1q-17 0 -28 11.5t-11 29.5t12.5 30.5t30.5 12.5q21 0 35.5 -17t14.5 -46
q0 -48 -31.5 -90zM181 867h78l148 -144h-57z" />
    <glyph glyph-name="uni1EEB" unicode="&#x1eeb;" horiz-adv-x="551" 
d="M544.5 454.5q-25.5 -38.5 -68.5 -61.5v-393h-75v68q-30 -34 -75.5 -57t-96.5 -23q-154 0 -154 154v341h75v-318q0 -60 27.5 -85t80.5 -25q42 0 81.5 21t61.5 52v355h75v-48q22 16 36 38t15 43l-11 -1q-17 0 -28.5 11.5t-11.5 29.5q0 17 12.5 30t30.5 13q21 0 36 -17
t15 -46q0 -43 -25.5 -81.5zM106 700h78l148 -144h-57z" />
    <glyph glyph-name="uni1EEC" unicode="&#x1eec;" horiz-adv-x="700" 
d="M706.5 638q-31.5 -42 -84.5 -63v-315q0 -127 -69.5 -199.5t-202.5 -72.5t-202.5 72.5t-69.5 198.5v408h83v-406q0 -93 49 -146t140 -53t140 53t49 146v406h83v-53q30 15 51 41t22 53l-11 -1q-17 0 -28 11.5t-11 29.5t12.5 30.5t30.5 12.5q21 0 35.5 -17t14.5 -46
q0 -48 -31.5 -90zM305 805q19 15 46 15q31 0 51.5 -17.5t20.5 -51.5q0 -16 -4.5 -28t-14.5 -26h-40q23 23 23 52q0 19 -9.5 29t-26.5 10q-29 0 -40 -32l-33 9q8 25 27 40z" />
    <glyph glyph-name="uni1EED" unicode="&#x1eed;" horiz-adv-x="551" 
d="M544.5 454.5q-25.5 -38.5 -68.5 -61.5v-393h-75v68q-30 -34 -75.5 -57t-96.5 -23q-154 0 -154 154v341h75v-318q0 -60 27.5 -85t80.5 -25q42 0 81.5 21t61.5 52v355h75v-48q22 16 36 38t15 43l-11 -1q-17 0 -28.5 11.5t-11.5 29.5q0 17 12.5 30t30.5 13q21 0 36 -17
t15 -46q0 -43 -25.5 -81.5zM230 635q19 15 46 15q31 0 51.5 -17.5t20.5 -51.5q0 -16 -4.5 -28t-14.5 -26h-40q23 23 23 52q0 19 -9.5 29t-26.5 10q-29 0 -40 -32l-33 9q8 25 27 40z" />
    <glyph glyph-name="uni1EEE" unicode="&#x1eee;" horiz-adv-x="700" 
d="M706.5 638q-31.5 -42 -84.5 -63v-315q0 -127 -69.5 -199.5t-202.5 -72.5t-202.5 72.5t-69.5 198.5v408h83v-406q0 -93 49 -146t140 -53t140 53t49 146v406h83v-53q30 15 51 41t22 53l-11 -1q-17 0 -28 11.5t-11 29.5t12.5 30.5t30.5 12.5q21 0 35.5 -17t14.5 -46
q0 -48 -31.5 -90zM311.5 803.5q-9.5 9.5 -24.5 9.5q-21 0 -34.5 -21.5t-13.5 -64.5h-45q0 60 25.5 97t71.5 37q26 0 41.5 -13.5t33.5 -39.5q15 -21 24 -30t24 -9q21 0 34.5 21.5t13.5 64.5h45q0 -60 -25.5 -97t-71.5 -37q-27 0 -42.5 13.5t-33.5 39.5q-13 20 -22.5 29.5z
" />
    <glyph glyph-name="uni1EEF" unicode="&#x1eef;" horiz-adv-x="551" 
d="M544.5 454.5q-25.5 -38.5 -68.5 -61.5v-393h-75v68q-30 -34 -75.5 -57t-96.5 -23q-154 0 -154 154v341h75v-318q0 -60 27.5 -85t80.5 -25q42 0 81.5 21t61.5 52v355h75v-48q22 16 36 38t15 43l-11 -1q-17 0 -28.5 11.5t-11.5 29.5q0 17 12.5 30t30.5 13q21 0 36 -17
t15 -46q0 -43 -25.5 -81.5zM236.5 636.5q-9.5 9.5 -24.5 9.5q-21 0 -34.5 -21.5t-13.5 -64.5h-45q0 60 25.5 97t71.5 37q26 0 41.5 -13.5t33.5 -39.5q15 -21 24 -30t24 -9q21 0 34.5 21.5t13.5 64.5h45q0 -60 -25.5 -97t-71.5 -37q-27 0 -42.5 13.5t-33.5 39.5
q-13 20 -22.5 29.5z" />
    <glyph glyph-name="uni1EF0" unicode="&#x1ef0;" horiz-adv-x="700" 
d="M706.5 638q-31.5 -42 -84.5 -63v-315q0 -127 -69.5 -199.5t-202.5 -72.5t-202.5 72.5t-69.5 198.5v408h83v-406q0 -93 49 -146t140 -53t140 53t49 146v406h83v-53q30 15 51 41t22 53l-11 -1q-17 0 -28 11.5t-11 29.5t12.5 30.5t30.5 12.5q21 0 35.5 -17t14.5 -46
q0 -48 -31.5 -90zM321 -104q14 14 33 14t32.5 -13.5t13.5 -33.5t-13.5 -33.5t-32.5 -13.5t-33 14t-14 33t14 33z" />
    <glyph glyph-name="uni1EF1" unicode="&#x1ef1;" horiz-adv-x="551" 
d="M544.5 454.5q-25.5 -38.5 -68.5 -61.5v-393h-75v68q-30 -34 -75.5 -57t-96.5 -23q-154 0 -154 154v341h75v-318q0 -60 27.5 -85t80.5 -25q42 0 81.5 21t61.5 52v355h75v-48q22 16 36 38t15 43l-11 -1q-17 0 -28.5 11.5t-11.5 29.5q0 17 12.5 30t30.5 13q21 0 36 -17
t15 -46q0 -43 -25.5 -81.5zM245 -104q14 14 33 14t32.5 -13.5t13.5 -33.5t-13.5 -33.5t-32.5 -13.5t-33 14t-14 33t14 33z" />
    <glyph glyph-name="Ygrave" unicode="&#x1ef2;" horiz-adv-x="626" 
d="M272 282l-263 385h97l207 -310l207 310h97l-262 -385v-282h-83v282zM144 867h78l148 -144h-57z" />
    <glyph glyph-name="ygrave" unicode="&#x1ef3;" horiz-adv-x="490" 
d="M101 -129q26 0 43 11t29 40l32 73l-202 488h81l161 -396l160 396h82l-242 -581q-21 -51 -56.5 -74t-85.5 -24q-30 0 -55 7l12 68q18 -8 41 -8zM76 700h78l148 -144h-57z" />
    <glyph glyph-name="uni1EF4" unicode="&#x1ef4;" horiz-adv-x="626" 
d="M272 282l-263 385h97l207 -310l207 310h97l-262 -385v-282h-83v282zM280 -104q14 14 33 14t32.5 -13.5t13.5 -33.5t-13.5 -33.5t-32.5 -13.5t-33 14t-14 33t14 33z" />
    <glyph glyph-name="uni1EF5" unicode="&#x1ef5;" horiz-adv-x="490" 
d="M101 -129q26 0 43 11t29 40l32 73l-202 488h81l161 -396l160 396h82l-242 -581q-21 -51 -56.5 -74t-85.5 -24q-30 0 -55 7l12 68q18 -8 41 -8zM210 -231q14 14 33 14t32.5 -13.5t13.5 -33.5t-13.5 -33.5t-32.5 -13.5t-33 14t-14 33t14 33z" />
    <glyph glyph-name="uni1EF6" unicode="&#x1ef6;" horiz-adv-x="626" 
d="M272 282l-263 385h97l207 -310l207 310h97l-262 -385v-282h-83v282zM263 805q19 15 46 15q31 0 51.5 -17.5t20.5 -51.5q0 -16 -4.5 -28t-14.5 -26h-40q23 23 23 52q0 19 -9.5 29t-26.5 10q-29 0 -40 -32l-33 9q8 25 27 40z" />
    <glyph glyph-name="uni1EF7" unicode="&#x1ef7;" horiz-adv-x="490" 
d="M101 -129q26 0 43 11t29 40l32 73l-202 488h81l161 -396l160 396h82l-242 -581q-21 -51 -56.5 -74t-85.5 -24q-30 0 -55 7l12 68q18 -8 41 -8zM191 647q19 15 46 15q31 0 51.5 -17.5t20.5 -51.5q0 -16 -4.5 -28t-14.5 -26h-40q23 23 23 52q0 19 -9.5 29t-26.5 10
q-29 0 -40 -32l-33 9q8 25 27 40z" />
    <glyph glyph-name="uni1EF8" unicode="&#x1ef8;" horiz-adv-x="626" 
d="M272 282l-263 385h97l207 -310l207 310h97l-262 -385v-282h-83v282zM274.5 803.5q-9.5 9.5 -24.5 9.5q-21 0 -34.5 -21.5t-13.5 -64.5h-45q0 60 25.5 97t71.5 37q26 0 41.5 -13.5t33.5 -39.5q15 -21 24 -30t24 -9q21 0 34.5 21.5t13.5 64.5h45q0 -60 -25.5 -97t-71.5 -37
q-27 0 -42.5 13.5t-33.5 39.5q-13 20 -22.5 29.5z" />
    <glyph glyph-name="uni1EF9" unicode="&#x1ef9;" horiz-adv-x="490" 
d="M101 -129q26 0 43 11t29 40l32 73l-202 488h81l161 -396l160 396h82l-242 -581q-21 -51 -56.5 -74t-85.5 -24q-30 0 -55 7l12 68q18 -8 41 -8zM204.5 636.5q-9.5 9.5 -24.5 9.5q-21 0 -34.5 -21.5t-13.5 -64.5h-45q0 60 25.5 97t71.5 37q26 0 41.5 -13.5t33.5 -39.5
q15 -21 24 -30t24 -9q21 0 34.5 21.5t13.5 64.5h45q0 -60 -25.5 -97t-71.5 -37q-27 0 -42.5 13.5t-33.5 39.5q-13 20 -22.5 29.5z" />
    <glyph glyph-name="uni2009" unicode="&#x2009;" horiz-adv-x="125" 
 />
    <glyph glyph-name="endash" unicode="&#x2013;" horiz-adv-x="593" 
d="M30 275h533v-66h-533v66z" />
    <glyph glyph-name="emdash" unicode="&#x2014;" horiz-adv-x="833" 
d="M30 275h773v-66h-773v66z" />
    <glyph glyph-name="uni2015" unicode="&#x2015;" horiz-adv-x="593" 
d="M30 275h533v-66h-533v66z" />
    <glyph glyph-name="quoteleft" unicode="&#x2018;" horiz-adv-x="230" 
d="M165 647q-24 -16 -42.5 -42.5t-21.5 -50.5l13 1q21 0 35 -14.5t14 -36.5t-15.5 -37.5t-37.5 -15.5q-26 0 -44.5 20.5t-18.5 55.5q0 44 22.5 84t58.5 66z" />
    <glyph glyph-name="quoteright" unicode="&#x2019;" horiz-adv-x="230" 
d="M57 481q24 16 43 42.5t22 50.5q-4 -2 -14 -2q-21 0 -34.5 14.5t-13.5 36.5t15.5 38t37.5 16q26 0 44.5 -20.5t18.5 -55.5q0 -44 -23 -84.5t-59 -66.5z" />
    <glyph glyph-name="quotesinglbase" unicode="&#x201a;" horiz-adv-x="230" 
d="M57 -96q25 16 43.5 42.5t21.5 50.5q-4 -2 -14 -2q-21 0 -34.5 14.5t-13.5 36.5t15.5 38t37.5 16q26 0 44.5 -20.5t18.5 -55.5q0 -44 -23 -84.5t-59 -66.5z" />
    <glyph glyph-name="quotereversed" unicode="&#x201b;" horiz-adv-x="230" 
d="M154 661q16 -16 16 -38t-14 -36.5t-35 -14.5q-9 0 -13 2q3 -24 21.5 -50.5t42.5 -42.5l-37 -31q-36 26 -58.5 66.5t-22.5 84.5q0 35 18 55.5t44 20.5q22 0 38 -16z" />
    <glyph glyph-name="quotedblleft" unicode="&#x201c;" horiz-adv-x="390" 
d="M172 647q-24 -16 -43 -42.5t-21 -50.5l13 1q21 0 34.5 -14.5t13.5 -36.5t-15.5 -37.5t-37.5 -15.5q-26 0 -44 20.5t-18 55.5q0 44 22.5 84t58.5 66zM332 647q-24 -16 -42.5 -42.5t-21.5 -50.5l13 1q21 0 35 -14.5t14 -36.5t-16 -37.5t-38 -15.5q-26 0 -44 20.5t-18 55.5
q0 44 22.5 84t58.5 66z" />
    <glyph glyph-name="quotedblright" unicode="&#x201d;" horiz-adv-x="390" 
d="M57 481q24 16 43 42.5t22 50.5q-4 -2 -14 -2q-21 0 -34.5 14.5t-13.5 36.5t15.5 38t37.5 16q26 0 44.5 -20.5t18.5 -55.5q0 -44 -23 -84.5t-59 -66.5zM218 481q24 16 42.5 42.5t21.5 50.5q-4 -2 -13 -2q-21 0 -35 14.5t-14 36.5t15.5 38t37.5 16q26 0 44.5 -20.5
t18.5 -55.5q0 -44 -23 -84.5t-58 -66.5z" />
    <glyph glyph-name="quotedblbase" unicode="&#x201e;" horiz-adv-x="390" 
d="M57 -96q25 16 43.5 42.5t21.5 50.5q-4 -2 -14 -2q-21 0 -34.5 14.5t-13.5 36.5t15.5 38t37.5 16q26 0 44.5 -20.5t18.5 -55.5q0 -44 -23 -84.5t-59 -66.5zM218 -96q24 16 42.5 42.5t21.5 50.5q-4 -2 -13 -2q-21 0 -35 14.5t-14 36.5t15.5 38t37.5 16q26 0 44.5 -20.5
t18.5 -55.5q0 -44 -23 -84.5t-58 -66.5z" />
    <glyph glyph-name="dagger" unicode="&#x2020;" horiz-adv-x="263" 
d="M155 327h-48l5 208l-89 -4v43l89 -3l-5 106h48l-4 -106l89 3v-43l-89 4z" />
    <glyph glyph-name="daggerdbl" unicode="&#x2021;" horiz-adv-x="263" 
d="M151 535v-213l89 4v-43l-89 3l4 -106h-48l4 106l-88 -3v43l88 -4v213l-88 -4v43l88 -3l-4 106h48l-4 -106l89 3v-43z" />
    <glyph glyph-name="bullet" unicode="&#x2022;" horiz-adv-x="358" 
d="M104 166.5q-32 31.5 -32 75.5t32 76t76 32t76 -32t32 -76t-32 -75.5t-76 -31.5t-76 31.5z" />
    <glyph glyph-name="ellipsis" unicode="&#x2026;" horiz-adv-x="690" 
d="M76 6.5q-16 16.5 -16 38.5q0 23 16 39t38 16q23 0 39 -16t16 -39q0 -22 -16.5 -38.5t-38.5 -16.5t-38 16.5zM306 6.5q-16 16.5 -16 38.5q0 23 16 39t38 16q23 0 39.5 -16.5t16.5 -38.5t-17 -38.5t-39 -16.5t-38 16.5zM536.5 6.5q-16.5 16.5 -16.5 38.5q0 23 16.5 39
t38.5 16q23 0 39 -16t16 -39q0 -22 -16.5 -38.5t-38.5 -16.5t-38.5 16.5z" />
    <glyph glyph-name="perthousand" unicode="&#x2030;" horiz-adv-x="1083" 
d="M107.5 369q-36.5 21 -56.5 58.5t-20 83.5q0 47 20.5 84.5t56.5 59.5t83 22t84 -22t57.5 -59.5t20.5 -84.5q0 -46 -20.5 -83.5t-57.5 -58.5t-84 -21t-83.5 21zM128 0l426 667h55l-427 -667h-54zM119 596q-28 -34 -28 -85q0 -50 28 -83t72 -33q45 0 73.5 33t28.5 83
q0 51 -28.5 85t-73.5 34q-44 0 -72 -34zM455.5 9q-36.5 21 -56.5 58.5t-20 83.5q0 47 20.5 84.5t56.5 59.5t83 22t83.5 -22t57 -59.5t20.5 -84.5q0 -46 -20.5 -83.5t-57 -58.5t-83.5 -21t-83.5 21zM807.5 9q-36.5 21 -56.5 58.5t-20 83.5q0 47 20.5 84.5t56.5 59.5t83 22
t83.5 -22t57 -59.5t20.5 -84.5q0 -46 -20.5 -83.5t-57 -58.5t-83.5 -21t-83.5 21zM466 236q-28 -34 -28 -85q0 -50 28 -83t73 -33t73.5 33t28.5 83q0 51 -28.5 85t-73.5 34t-73 -34zM819 236.5q-28 -33.5 -28 -85.5q0 -50 28 -83t72 -33q45 0 73.5 33t28.5 83q0 51 -28.5 85
t-73.5 34q-44 0 -72 -33.5z" />
    <glyph glyph-name="uni2032" unicode="&#x2032;" horiz-adv-x="203" 
d="M68.5 546.5q25.5 93.5 29.5 102.5q5 13 16.5 20.5t25.5 7.5q20 0 33 -13.5t13 -32.5q0 -9 -3 -17l-58.5 -108l-55.5 -101l-35 14z" />
    <glyph glyph-name="uni2033" unicode="&#x2033;" horiz-adv-x="358" 
d="M68.5 546.5q25.5 93.5 29.5 102.5q5 13 16.5 20.5t25.5 7.5q20 0 33 -13.5t13 -32.5q0 -9 -3 -17l-58.5 -108l-55.5 -101l-35 14zM224 546.5q25 93.5 29 102.5q5 13 17 20.5t26 7.5q19 0 32.5 -13.5t13.5 -32.5q0 -10 -4 -17q-3 -8 -50 -93l-64 -116l-34 14z" />
    <glyph glyph-name="guilsinglleft" unicode="&#x2039;" horiz-adv-x="295" 
d="M30 243l160 177h75l-160 -177l160 -180h-75z" />
    <glyph glyph-name="guilsinglright" unicode="&#x203a;" horiz-adv-x="295" 
d="M30 63l160 180l-160 177h75l160 -177l-160 -180h-75z" />
    <glyph glyph-name="uni203D" unicode="&#x203d;" horiz-adv-x="471" 
d="M383.5 627q56.5 -50 56.5 -133q0 -76 -52.5 -128t-127.5 -83l-5 -96h-63l-16 337h94l-7 -165q47 21 73 53.5t26 81.5q0 51 -34 80t-92 29q-59 0 -98.5 -21t-69.5 -61l-50 54q37 48 92.5 75t124.5 27q92 0 148.5 -50zM263 84q16 -16 16 -39q0 -22 -16 -38.5t-39 -16.5
q-22 0 -38.5 16.5t-16.5 38.5q0 23 16.5 39t38.5 16q23 0 39 -16z" />
    <glyph glyph-name="uni203E" unicode="&#x203e;" horiz-adv-x="363" 
d="M0 620h363v-48h-363v48z" />
    <glyph glyph-name="fraction" unicode="&#x2044;" horiz-adv-x="138" 
d="M-172 0l426 667h56l-427 -667h-55z" />
    <glyph glyph-name="uni2070" unicode="&#x2070;" horiz-adv-x="388" 
d="M103.5 444q-36.5 30 -53.5 77t-17 100t17 100t53.5 76.5t90.5 29.5t90.5 -29.5t53.5 -76.5t17 -100t-17 -100t-53.5 -77t-90.5 -30t-90.5 30zM118 733.5q-24 -44.5 -24 -112.5t24 -113t76 -45q51 0 75 45t24 113t-24 112.5t-75 44.5q-52 0 -76 -44.5z" />
    </font>
</defs>
</svg>
